Рядовой Писфул / Private Peaceful (Пэт О’Коннор / Pat O'Connor) [2012, Великобритания, драма, военный, BDRip 720p] VO (студия Райдо) + Sub Rus + Original Eng

Ответить на тему
 
Автор Сообщение

user ®

Стаж: 7 лет 7 месяцев

Сообщений: 20008

Пост Пост: #1 от 11-Авг-2013 07:10

[Цитировать]

Рядовой Писфул / Private Peaceful
Страна: Великобритания
Жанр: драма, военный
Год выпуска: 2012
Продолжительность: 01:42:30
Перевод: одноголосый закадровый студия Райдо
Cубтитры: русские
Оригинальная аудиодорожка: английский
Режиссер: Пэт О’Коннор / Pat O'Connor
В ролях: Джек О’Коннелл, Ричард Гриффитс, Джон Линч, Фрэнсис де ла Тур, Иззи Мейкл-Смолл, Джордж МакКэй, Максин Пик, Александра Роач, Хиро Файнс-Тиффин, Энтони Флэнеган и др.
Описание: Когда юный Томмо Писфул уходит добровольцем на фронт, его старший брат Чарли, привыкший всегда защищать Томмо, следует за ним во Фландрию. Именно здесь героям фильма «Рядовой Писфул» предстоит испытать на себе жестокий характер войны, познать жизнь, такую далекую от той тихой патриархальной жизни, что у них была в деревне, и стать соперниками за любовь одной девушки.
Фильм снят по книге Майкла Морпурго, автора истории к фильму Стивена Спилберга "Боевой конь"
Сэмпл: http://multi-up.com/892560
Качество видео: BDRip 720p
Формат видео: MKV
Видео: AVC, 1280x688, 1,85:1, 23,976, 5327 Кбит/сек
Аудио: Русский, AC-3, 48,0 КГц, 448 Кбит/сек, Front: L C R, Side: L R, LFE
Аудио 2: Английский, DTS, 48,0 КГц, 768 Кбит/сек, Front: L C R, Side: L R, LFE
Формат субтитров: softsub (SRT) русский, английский
Оценить озвучку онлайн
Перевод на русский язык Ирины Кужаровой
Закадровый текст читал Сергей Калугин
Дизайн-афиши Михаил Жоголев

MediaInfo

Общее
Уникальный идентификатор : 254033009567007152339278918150187960904 (0xBF1CFA5E20F61DABBDB494C2C6C8CA48)
Полное имя : E:\Рядовой Писфул (2012) Raidho.mkv
Формат : Matroska
Версия формата : Version 2
Размер файла : 4,68 Гбайт
Продолжительность : 1 ч. 42 м.
Общий поток : 6543 Кбит/сек
Дата кодирования : UTC 2013-08-09 20:29:00
Программа кодирования : mkvmerge v5.3.0 ('I could have danced') built on Mar 4 2012 19:18:32
Библиотека кодирования : libebml v1.2.3 + libmatroska v1.3.0
Видео
Идентификатор : 1
Формат : AVC
Формат/Информация : Advanced Video Codec
Профиль формата : High@L4.1
Параметр CABAC формата : Да
Параметр ReFrames формата : 5 кадров
Идентификатор кодека : V_MPEG4/ISO/AVC
Продолжительность : 1 ч. 42 м.
Битрейт : 5327 Кбит/сек
Ширина : 1280 пикселей
Высота : 688 пикселей
Соотношение сторон : 1,85:1
Режим частоты кадров : Постоянный
Частота кадров : 23,976 кадра/сек
Цветовое пространство : YUV
Субдискретизация насыщенности : 4:2:0
Битовая глубина : 8 бит
Тип развёртки : Прогрессивная
Бит/(Пиксели*Кадры) : 0.252
Размер потока : 3,72 Гбайт (79%)
Библиотека кодирования : x264 core 129 r2230 1cffe9f
Настройки программы : cabac=1 / ref=5 / deblock=1:0:0 / analyse=0x3:0x133 / me=umh / subme=7 / psy=1 / psy_rd=1.00:0.00 / mixed_ref=1 / me_range=16 / chroma_me=1 / trellis=1 / 8x8dct=1 / cqm=0 / deadzone=21,11 / fast_pskip=0 / chroma_qp_offset=-2 / threads=12 / lookahead_threads=2 / sliced_threads=0 / nr=0 / decimate=1 / interlaced=0 / bluray_compat=0 / constrained_intra=0 / bframes=3 / b_pyramid=2 / b_adapt=2 / b_bias=0 / direct=3 / weightb=1 / open_gop=0 / weightp=2 / keyint=250 / keyint_min=23 / scenecut=40 / intra_refresh=0 / rc_lookahead=50 / rc=2pass / mbtree=1 / bitrate=5327 / ratetol=1.0 / qcomp=0.60 / qpmin=0 / qpmax=69 / qpstep=4 / cplxblur=20.0 / qblur=0.5 / ip_ratio=1.40 / aq=1:1.00
Язык : English
Default : Да
Forced : Нет
Аудио #1
Идентификатор : 2
Формат : AC-3
Формат/Информация : Audio Coding 3
Расширение режима : CM (complete main)
Параметр Endianness формата : Big
Идентификатор кодека : A_AC3
Продолжительность : 1 ч. 42 м.
Вид битрейта : Постоянный
Битрейт : 448 Кбит/сек
Каналы : 6 каналов
Расположение каналов : Front: L C R, Side: L R, LFE
Частота : 48,0 КГц
Битовая глубина : 16 бит
Метод сжатия : С потерями
Размер потока : 328 Мбайт (7%)
Язык : Russian
Default : Да
Forced : Нет
Аудио #2
Идентификатор : 3
Формат : DTS
Формат/Информация : Digital Theater Systems
Режим : 16
Параметр Endianness формата : Big
Идентификатор кодека : A_DTS
Продолжительность : 1 ч. 42 м.
Вид битрейта : Постоянный
Битрейт : 768 Кбит/сек
Каналы : 6 каналов
Расположение каналов : Front: L C R, Side: L R, LFE
Частота : 48,0 КГц
Битовая глубина : 24 бит
Метод сжатия : С потерями
Размер потока : 563 Мбайт (12%)
Язык : English
Default : Нет
Forced : Нет
Текст #1
Идентификатор : 4
Формат : UTF-8
Идентификатор кодека : S_TEXT/UTF8
Идентификатор кодека/Информация : UTF-8 Plain Text
Язык : Russian
Default : Нет
Forced : Нет
Текст #2
Идентификатор : 5
Формат : UTF-8
Идентификатор кодека : S_TEXT/UTF8
Идентификатор кодека/Информация : UTF-8 Plain Text
Язык : English
Default : Нет
Forced : Нет
Меню
00:00:00.000 : en:00:00:00.000
00:08:14.494 : en:00:08:14.494
00:17:59.120 : en:00:17:59.120
00:29:19.424 : en:00:29:19.424
00:38:41.653 : en:00:38:41.653
00:49:14.994 : en:00:49:14.994
01:03:55.582 : en:01:03:55.582
01:17:11.502 : en:01:17:11.502
01:29:46.006 : en:01:29:46.006
01:38:18.601 : en:01:38:18.601

Скриншот c названием фильма

Скриншоты

Скачать

Скачать торрент!

Как скачивать? · Что такое торрент? · Рейтинг и ограничения

Сайт не распространяет и не хранит электронные версии произведений, а лишь предоставляет доступ к создаваемому пользователями каталогу ссылок на торрент-файлы, которые содержат только списки хеш-сумм

[Профиль] [ЛС]
Показать сообщения:    
Ответить на тему

Текущее время: Сегодня 12:55

Часовой пояс: GMT + 4



Вы не можете начинать темы
Вы не можете отвечать на сообщения
Вы не можете редактировать свои сообщения
Вы не можете удалять свои сообщения
Вы не можете голосовать в опросах
Вы не можете прикреплять файлы к сообщениям
Вы не можете скачивать файлы