Обливион / Oblivion (Джозеф Косински / Joseph Kosinski) [2013, фантастика, боевик, триллер, приключения, BDRip-AVC] Dub + Eng + sub rus, eng

Ответить на тему
 
Автор Сообщение

user ®

Стаж: 7 лет 7 месяцев

Сообщений: 20008

Пост Пост: #1 от 11-Авг-2013 01:25

[Цитировать]

Обливион / Oblivion- Страна: США, Chernin Entertainment, Ironhead Studios, Radical Pictures, Radical Studios, Truenorth Productions, Universal Pictures
Жанр: Фантастика, боевик, триллер, приключения, антиутопия
Год выпуска: 2013
Продолжительность: 02:04:42
Перевод: Профессиональный (дублированный) [Лицензия]
Субтитры: русские (форсированные, полные (лицензия + Voronine)), английские
Оригинальная дорожка: английский
Главы: есть
Режиссер: Джозеф Косински / Joseph Kosinski
В ролях: Том Круз, Ольга Куриленко, Морган Фримен, Андреа Райзборо, Николай Костер-Валдау, Мелисса Лео, Зои Белл, Эбигейл Лоу, Изабель Лоу, Дэвид Мэдисон-Описание: Можно ли скучать по месту, в котором никогда не был, мечтать о девушке, которую никогда не видел? Добро пожаловать в будущее! Мы больше не можем называть Землю своим домом. Мы выиграли войну, но не смогли сохранить планету…-IMDB | Кинопоиск | Сэмпл-Качество видео: BDRip-AVC (энкод L)
Формат видео: MKV
Видео: AVC / High@L4.1 / 1156 x 484 / 2 439 Kbps / 2.40:1
Аудио:
Russian: 48 kHz, AC3 Dolby Digital, 3/2 (L,C,R,l,r) + LFE ch, ~448 kbps
English: 48 kHz, AC3 Dolby Digital, 3/2 (L,C,R,l,r) + LFE ch, ~448 kbps
Формат субтитров: softsub (SRT)

Скриншоты



Дополнительная информация о раздаче

Исходник

Oblivion 2013 1080p Blu-ray AVC TrueHD 5.1-HDWinG

MediaInfo

Общее
Уникальный идентификатор                 : 201238017290052328533171230584913217792 (0x97650847BFBE4269B9BC978DD0A34900)
Полное имя                               : D:\25Kadr\Oblivion.2013.Bluray.x264.ac3.rus.eng.by_L.mkv
Формат                                   : Matroska
Версия формата                           : Version 2
Размер файла                             : 2,91 Гбайт
Продолжительность                        : 2 ч. 4 м.
Общий поток                              : 3337 Кбит/сек
Название фильма                          : Обливион / Oblivion [2013 г.] | Рип от L
Дата кодирования                         : UTC 2013-08-06 06:33:00
Программа кодирования                    : mkvmerge v3.2.0 ('Beginnings') built on Feb 12 2010 16:46:17
Библиотека кодирования                   : libebml v0.7.9 + libmatroska v0.8.1
Видео
Идентификатор                            : 1
Формат                                   : AVC
Формат/Информация                        : Advanced Video Codec
Профиль формата                          : High@L4.1
Параметр CABAC формата                   : Да
Параметр ReFrames формата                : 10 кадров
Идентификатор кодека                     : V_MPEG4/ISO/AVC
Продолжительность                        : 2 ч. 4 м.
Битрейт                                  : 2439 Кбит/сек
Ширина                                   : 1156 пикселей
Высота                                   : 484 пикселя
Соотношение сторон                       : 2,40:1
Режим частоты кадров                     : Постоянный
Частота кадров                           : 23,976 кадра/сек
Цветовое пространство                    : YUV
Субдискретизация насыщенности            : 4:2:0
Битовая глубина                          : 8 бит
Тип развёртки                            : Прогрессивная
Бит/(Пиксели*Кадры)                      : 0.182
Размер потока                            : 2,07 Гбайт (71%)
Библиотека кодирования                   : x264 core 133 r2334 a3ac64b
Настройки программы                      : cabac=1 / ref=10 / deblock=1:-3:-3 / analyse=0x3:0x133 / me=umh / subme=11 / psy=1 / psy_rd=1.10:0.10 / mixed_ref=1 / me_range=32 / chroma_me=1 / trellis=2 / 8x8dct=1 / cqm=0 / deadzone=21,11 / fast_pskip=0 / chroma_qp_offset=-4 / threads=6 / lookahead_threads=1 / sliced_threads=0 / nr=0 / decimate=1 / interlaced=0 / bluray_compat=0 / constrained_intra=0 / bframes=11 / b_pyramid=2 / b_adapt=2 / b_bias=0 / direct=3 / weightb=1 / open_gop=0 / weightp=2 / keyint=230 / keyint_min=21 / scenecut=40 / intra_refresh=0 / rc_lookahead=0 / rc=2pass / mbtree=0 / bitrate=2439 / ratetol=1.0 / qcomp=0.70 / qpmin=0 / qpmax=69 / qpstep=4 / cplxblur=20.0 / qblur=0.5 / vbv_maxrate=50000 / vbv_bufsize=62500 / nal_hrd=none / ip_ratio=1.35 / pb_ratio=1.25 / aq=2:0.90
Язык                                     : English
Default                                  : Нет
Forced                                   : Нет
Аудио #1
Идентификатор                            : 2
Формат                                   : AC-3
Формат/Информация                        : Audio Coding 3
Расширение режима                        : CM (complete main)
Параметр Endianness формата              : Big
Идентификатор кодека                     : A_AC3
Продолжительность                        : 2 ч. 4 м.
Вид битрейта                             : Постоянный
Битрейт                                  : 448 Кбит/сек
Каналы                                   : 5 каналов
Расположение каналов                     : Front: L C R, Side: L R
Частота                                  : 48,0 КГц
Битовая глубина                          : 16 бит
Метод сжатия                             : С потерями
Размер потока                            : 400 Мбайт (13%)
Заголовок                                : Дубляж
Язык                                     : Russian
Default                                  : Да
Forced                                   : Нет
Аудио #2
Идентификатор                            : 3
Формат                                   : AC-3
Формат/Информация                        : Audio Coding 3
Расширение режима                        : CM (complete main)
Параметр Endianness формата              : Big
Идентификатор кодека                     : A_AC3
Продолжительность                        : 2 ч. 4 м.
Вид битрейта                             : Постоянный
Битрейт                                  : 448 Кбит/сек
Каналы                                   : 6 каналов
Расположение каналов                     : Front: L C R, Side: L R, LFE
Частота                                  : 48,0 КГц
Битовая глубина                          : 16 бит
Метод сжатия                             : С потерями
Размер потока                            : 400 Мбайт (13%)
Заголовок                                : Оригинал
Язык                                     : English
Default                                  : Нет
Forced                                   : Нет
Текст #1
Идентификатор                            : 4
Формат                                   : UTF-8
Идентификатор кодека                     : S_TEXT/UTF8
Идентификатор кодека/Информация          : UTF-8 Plain Text
Заголовок                                : Форсированные
Язык                                     : Russian
Default                                  : Да
Forced                                   : Нет
Текст #2
Идентификатор                            : 5
Формат                                   : UTF-8
Идентификатор кодека                     : S_TEXT/UTF8
Идентификатор кодека/Информация          : UTF-8 Plain Text
Заголовок                                : Лицензия СЕЕ
Язык                                     : Russian
Default                                  : Нет
Forced                                   : Нет
Текст #3
Идентификатор                            : 6
Формат                                   : UTF-8
Идентификатор кодека                     : S_TEXT/UTF8
Идентификатор кодека/Информация          : UTF-8 Plain Text
Заголовок                                : Voronine
Язык                                     : Russian
Default                                  : Нет
Forced                                   : Нет
Текст #4
Идентификатор                            : 7
Формат                                   : UTF-8
Идентификатор кодека                     : S_TEXT/UTF8
Идентификатор кодека/Информация          : UTF-8 Plain Text
Язык                                     : English
Default                                  : Нет
Forced                                   : Нет
Меню
00:00:00.000                             : en:00:00:00.000
00:04:31.354                             : en:00:04:31.354
00:12:51.813                             : en:00:12:51.813
00:21:25.284                             : en:00:21:25.284
00:27:20.138                             : en:00:27:20.138
00:35:30.337                             : en:00:35:30.337
00:40:06.779                             : en:00:40:06.779
00:46:16.023                             : en:00:46:16.023
00:52:22.181                             : en:00:52:22.181
01:01:59.716                             : en:01:01:59.716
01:07:59.409                             : en:01:07:59.409
01:16:25.831                             : en:01:16:25.831
01:22:08.173                             : en:01:22:08.173
01:25:31.752                             : en:01:25:31.752
01:30:22.542                             : en:01:30:22.542
01:36:30.368                             : en:01:36:30.368
01:40:29.106                             : en:01:40:29.106
01:46:27.423                             : en:01:46:27.423
01:53:05.320                             : en:01:53:05.320
01:58:23.847                             : en:01:58:23.847

Log x264

---[Information] [26.07.2013 6:38:19] x264 [info]: frame I:1558  Avg QP:15.13  size: 94682  PSNR Mean Y:48.10 U:51.63 V:51.23 Avg:48.86 Global:48.47
---[Information] [26.07.2013 6:38:19] x264 [info]: frame P:36441 Avg QP:17.72  size: 25860  PSNR Mean Y:46.22 U:50.34 V:49.78 Avg:47.07 Global:46.51
---[Information] [26.07.2013 6:38:19] x264 [info]: frame B:141396 Avg QP:19.54  size:  8422  PSNR Mean Y:45.72 U:50.34 V:49.45 Avg:46.54 Global:45.93
Скачать

Скачать торрент!

Как скачивать? · Что такое торрент? · Рейтинг и ограничения

Сайт не распространяет и не хранит электронные версии произведений, а лишь предоставляет доступ к создаваемому пользователями каталогу ссылок на торрент-файлы, которые содержат только списки хеш-сумм

[Профиль] [ЛС]
Показать сообщения:    
Ответить на тему

Текущее время: Сегодня 20:06

Часовой пояс: GMT + 4



Вы не можете начинать темы
Вы не можете отвечать на сообщения
Вы не можете редактировать свои сообщения
Вы не можете удалять свои сообщения
Вы не можете голосовать в опросах
Вы не можете прикреплять файлы к сообщениям
Вы не можете скачивать файлы