Атлантида: Затерянный мир / Atlantis: The Lost Empire (Гари Труздейл, Кирк Уайз) [2001, Мультфильм, фантастика, приключения, семейный, BDRip] Dub + MVO + AVO

Ответить на тему
 
Автор Сообщение

user ®

Стаж: 13 лет

Сообщений: 15041

Пост Пост: #1 от 10-Авг-2013 02:15

[Цитировать]

Атлантида: Затерянный мир / Atlantis: The Lost Empire
Страна: США
Жанр: Мультфильм, фантастика, приключения, семейный
Продолжительность: 01:35:52
Год выпуска: 2001
Перевод: Профессиональный (дублированный)
Перевод 2: Профессиональный (многоголосый закадровый)
Перевод 3: Авторский (одноголосый закадровый)
Русские субтитры: нет
Режиссёр: Гари Труздейл, Кирк Уайз
Роли озвучивали: Майкл Дж. Фокс, Кори Бертон, Клаудия Кристиан, Джеймс Гарнер, Джон Махони, Фил Моррис, Леонард Нимой, Дон Новелло, Жаклин Обрадорс, Флоренс Стэнли
Описание: Атлантида... Мечтою найти легендарный затонувший в пучинах океана остров грезили многие смельчаки. Но только юномукартографу Майло Тэтчу повезло: в 1914 году в его руки попал таинственный дневник, указывающий путь к Затерянной империи. И вот уже самая могучая подводная лодка в мире под командованием неустрашимого капитана Рурка выходит в открытый океан. Майло и его спутников ждет множество незабываемых приключений, превосходящих все похождения капитана Немо: схватка с морским чудовищем, древние загадки, буйство стихий, мистические силы и даже встреча с цивилизацией атлантов! И это лишь малая толика того, что ждет героев на их пути к тайнам великой Атлантиды.
Сэмпл: http://yadi.sk/d/28ylNJq67kADc
Качество: BDRip
Формат: MKV
Видео: MPEG-4 AVC, 1732 Kбит/с, 1024x432, 23.976 кадр/с
Аудио: Dolby Digital Audio Russian / 5.1 / 48 kHz / 384 Кбит/с / 16-bit - Дублированный (Невафильм)
Аудио 2: Dolby Digital Audio Russian / 5.1 / 48 kHz / 384 Кбит/с / 16-bit - Многоголосый (С.Р.И)
Аудио 3: Dolby Digital Audio Russian / 5.1 / 48 kHz / 384 Кбит/с / 16-bit - Авторский одноголосый (Визгунов)
Аудио 4: Dolby Digital Audio English / 5.1 / 48 kHz / 384 Кбит/с / 16-bit - Оригинал
Субтитры: отсутствуют

Подробные технические данные

C:\Users\Сергей\Videos\Атлантида Затерянный мир.2001.AVC.mkv General Unique ID : 218789919148437854163376687302922207948 (0xA49967DAC340392BAEBB5BCB258002CC) Complete name : C:\Users\Сергей\Videos\Атлантида Затерянный мир.2001.AVC.mkv Format : Matroska Format version : Version 2 File size : 2.19 GiB Duration : 1h 35mn Overall bit rate : 3 271 Kbps Movie name : rip_by_3DRip Encoded date : UTC 2013-08-09 12:34:07 Writing application : mkvmerge v3.4.0 ('Rapunzel') сборка от May 15 2010 09:38:20 Writing library : libebml v0.8.0 + libmatroska v0.9.0 Video #1 ID : 1 Format : AVC Format/Info : Advanced Video Codec Format profile : High@L4.1 Format settings, CABAC : Yes Format settings, ReFrames : 9 frames Codec ID : V_MPEG4/ISO/AVC Duration : 1h 35mn Bit rate : 1 732 Kbps Width : 1 024 pixels Height : 432 pixels Display aspect ratio : 2.40:1 Frame rate mode : Constant Frame rate : 23.976 fps Color space : YUV Chroma subsampling : 4:2:0 Bit depth : 8 bits Scan type : Progressive Bits/(Pixel*Frame) : 0.163 Stream size : 1.12 GiB (51%) Title : rip_by_3DRip Writing library : x264 core 133 r2334 a3ac64b Encoding settings : cabac=1 / ref=9 / deblock=1:-3:-3 / analyse=0x3:0x133 / me=umh / subme=10 / psy=1 / psy_rd=1.00:0.00 / mixed_ref=1 / me_range=32 / chroma_me=1 / trellis=2 / 8x8dct=1 / cqm=0 / deadzone=21,11 / fast_pskip=0 / chroma_qp_offset=-2 / threads=6 / lookahead_threads=1 / sliced_threads=0 / nr=0 / decimate=1 / interlaced=0 / bluray_compat=0 / constrained_intra=0 / bframes=15 / b_pyramid=2 / b_adapt=2 / b_bias=0 / direct=3 / weightb=1 / open_gop=0 / weightp=2 / keyint=240 / keyint_min=22 / scenecut=40 / intra_refresh=0 / rc_lookahead=40 / rc=2pass / mbtree=1 / bitrate=1732 / ratetol=1.0 / qcomp=0.60 / qpmin=10 / qpmax=51 / qpstep=4 / cplxblur=20.0 / qblur=0.5 / ip_ratio=1.40 / aq=1:1.00 Language : English Default : No Forced : No Audio #2 ID : 2 Format : AC-3 Format/Info : Audio Coding 3 Mode extension : CM (complete main) Format settings, Endianness : Big Codec ID : A_AC3 Duration : 1h 35mn Bit rate mode : Constant Bit rate : 384 Kbps Channel(s) : 6 channels Channel positions : Front: L C R, Side: L R, LFE Sampling rate : 48.0 KHz Bit depth : 16 bits Compression mode : Lossy Stream size : 263 MiB (12%) Title : Дублированный (Невафильм) Language : Russian Default : Yes Forced : No Audio #3 ID : 3 Format : AC-3 Format/Info : Audio Coding 3 Mode extension : CM (complete main) Format settings, Endianness : Big Codec ID : A_AC3 Duration : 1h 35mn Bit rate mode : Constant Bit rate : 384 Kbps Channel(s) : 6 channels Channel positions : Front: L C R, Side: L R, LFE Sampling rate : 48.0 KHz Bit depth : 16 bits Compression mode : Lossy Stream size : 263 MiB (12%) Title : Многоголосый (С.Р.И) Language : Russian Default : No Forced : No Audio #4 ID : 4 Format : AC-3 Format/Info : Audio Coding 3 Mode extension : CM (complete main) Format settings, Endianness : Big Codec ID : A_AC3 Duration : 1h 35mn Bit rate mode : Constant Bit rate : 384 Kbps Channel(s) : 6 channels Channel positions : Front: L C R, Side: L R, LFE Sampling rate : 48.0 KHz Bit depth : 16 bits Compression mode : Lossy Stream size : 263 MiB (12%) Title : Авторский одноголосый (Визгунов) Language : Russian Default : No Forced : No Audio #5 ID : 5 Format : AC-3 Format/Info : Audio Coding 3 Mode extension : CM (complete main) Format settings, Endianness : Big Codec ID : A_AC3 Duration : 1h 35mn Bit rate mode : Constant Bit rate : 384 Kbps Channel(s) : 6 channels Channel positions : Front: L C R, Side: L R, LFE Sampling rate : 48.0 KHz Bit depth : 16 bits Compression mode : Lossy Stream size : 263 MiB (12%) Language : English Default : No Forced : No

Лог кодирования

---[Information] [09.08.2013 16:29:06] x264 [info]: frame I:1147 Avg QP:13.06 size: 82537---[Information] [09.08.2013 16:29:06] x264 [info]: frame P:36774 Avg QP:17.20 size: 18226---[Information] [09.08.2013 16:29:06] x264 [info]: frame B:100004 Avg QP:19.69 size: 4811---[Information] [09.08.2013 16:29:06] x264 [info]: consecutive B-frames: 3.5% 3.0% 13.9% 52.5% 15.3% 7.4% 1.4% 0.9% 0.5% 0.4% 0.2% 0.3% 0.1% 0.1% 0.1% 0.5%---[Information] [09.08.2013 16:29:06] x264 [info]: mb I I16..4: 10.3% 40.7% 49.1%---[Information] [09.08.2013 16:29:06] x264 [info]: mb P I16..4: 1.8% 4.0% 3.3% P16..4: 30.5% 14.6% 14.2% 1.9% 0.9% skip:28.8%---[Information] [09.08.2013 16:29:06] x264 [info]: mb B I16..4: 0.2% 0.3% 0.3% B16..8: 23.8% 8.2% 3.6% direct: 2.7% skip:60.9% L0:46.7% L1:44.7% BI: 8.6%---[Information] [09.08.2013 16:29:06] x264 [info]: 8x8 transform intra:41.3% inter:38.6%---[Information] [09.08.2013 16:29:06] x264 [info]: direct mvs spatial:92.0% temporal:8.0%---[Information] [09.08.2013 16:29:06] x264 [info]: coded y,uvDC,uvAC intra: 63.1% 69.8% 57.4% inter: 12.4% 11.2% 4.9%---[Information] [09.08.2013 16:29:06] x264 [info]: i16 v,h,dc,p: 59% 17% 9% 14%---[Information] [09.08.2013 16:29:06] x264 [info]: i8 v,h,dc,ddl,ddr,vr,hd,vl,hu: 11% 10% 16% 9% 11% 11% 11% 10% 13%---[Information] [09.08.2013 16:29:06] x264 [info]: i4 v,h,dc,ddl,ddr,vr,hd,vl,hu: 11% 9% 11% 11% 13% 11% 11% 10% 13%---[Information] [09.08.2013 16:29:06] x264 [info]: i8c dc,h,v,p: 51% 23% 17% 9%---[Information] [09.08.2013 16:29:06] x264 [info]: Weighted P-Frames: Y:2.2% UV:1.6%---[Information] [09.08.2013 16:29:06] x264 [info]: ref P L0: 46.3% 6.7% 15.5% 8.6% 5.9% 5.8% 4.2% 3.2% 2.7% 1.0% 0.0%---[Information] [09.08.2013 16:29:06] x264 [info]: ref B L0: 66.4% 12.4% 8.1% 3.9% 3.6% 2.8% 1.9% 0.8%---[Information] [09.08.2013 16:29:06] x264 [info]: ref B L1: 91.3% 8.7%---[Information] [09.08.2013 16:29:06] x264 [info]: kb/s:1732.75---[Information] [09.08.2013 16:29:06] encoded 137925 frames, 13.24 fps, 1732.75 kb/s--[Information] [09.08.2013 16:29:10] Final statistics---[Information] [09.08.2013 16:29:10] Video Bitrate Desired: 1732 kbit/s---[Information] [09.08.2013 16:29:10] Video Bitrate Obtained (approximate): 1734 kbit/s

Скриншоты


Скачать

Скачать торрент! Атлантида: Затерянный мир / Atlantis: The Lost Empire (Гари Труздейл, Кирк Уайз) [2001, Мультфильм, фантастика, приключения, семейный, BDRip] Dub + MVO + AVO

Как скачивать? · Что такое торрент? · Рейтинг и ограничения

Сайт не распространяет и не хранит электронные версии произведений, а лишь предоставляет доступ к создаваемому пользователями каталогу ссылок на торрент-файлы, которые содержат только списки хеш-сумм

[Профиль] [ЛС]
Показать сообщения:    
Ответить на тему

Текущее время: Сегодня 19:33

Часовой пояс: GMT + 4



Вы не можете начинать темы
Вы не можете отвечать на сообщения
Вы не можете редактировать свои сообщения
Вы не можете удалять свои сообщения
Вы не можете голосовать в опросах
Вы не можете прикреплять файлы к сообщениям
Вы не можете скачивать файлы