Охотники на гангстеров / Gangster Squad (Рубен Флейшер / Ruben Fleischer) [2013, США, боевик, триллер, драма, криминал, HDRip] Dub

Ответить на тему
 
Автор Сообщение

user ®

Стаж: 7 лет 7 месяцев

Сообщений: 20008

Пост Пост: #1 от 10-Авг-2013 02:15

[Цитировать]

Охотники на гангстеров / Gangster Squad
Страна: США
Жанр: боевик, триллер, драма, криминал
Год выпуска: 2013
Продолжительность: 01:52:54
Перевод: Профессиональный (дублированный)
Cубтитры: нет
Оригинальная аудиодорожка: нет
Режиссер: Рубен Флейшер / Ruben Fleischer
В ролях: Джош Бролин (Sgt. John O'Mara), Райан Гослинг (Sgt. Jerry Wooters), Ник Нолти (Chief Parker), Эмма Стоун (Grace Faraday), Энтони Маки (Officer Coleman Harris), Джованни Рибизи (Officer Conway Keeler), Майкл Пенья (Officer Navidad Ramirez), Роберт Патрик (Officer Max Kennard), Шон Пенн (Mickey Cohen), Холт МакКэллани (Karl Lennox), Уэйд Уильямс (Rourke), Джеймс Хеберт (Mitch Racine)
Описание: Лос-Анджелес, 1949 год. Уроженец Бруклина, жестокий главарь банды Микки Коэн держит город в ежовых рукавицах, собирая «грязные» деньги от торговли наркотиками, оружием и проституции, и - если все пойдет, как надо, - к Западу от Чикаго мышь не пискнет без его ведома. Защищают его не только его же головорезы, но и находящиеся у него «на крючке» полиция и политики. Этого хватит, чтобы запугать даже самых смелых, закаленных улицей копов... кроме, пожалуй, небольшой тайной группы сотрудников полицейского департамента Лос-Анджелеса во главе с сержантом Джоном О’Мара и Джерри Вутерсом, которые объединились, чтобы попытаться уничтожить преступный мир Коэна.
Качество видео: HDRip
Формат видео: AVI
Видео: 720x304 (2.37:1), 23.976 fps, XviD build 50 ~1449 kbps avg, 0.28 bit/pixel
Аудио: 48 kHz, AC3 Dolby Digital, 3/2 (L,C,R,l,r) + LFE ch, ~384.00 kbps avg

Знаете ли вы, что...

Каждое утро перед съемками Шону Пенну по 3 часа наносили макияж.
Отель и виллы под названием «The Garden of Allah» существовали в реальной жизни. И были расположены на Бульваре Сансет 8152 в Западном Голливуде, Калифорния.
Эми Адамс и Кейт Уинслет рассматривались на роль Конни О`Мара.
Джейми Фокс рассматривался на роль Коулмана Харриса.
Эшли Грин, Тереза Палмер, Камилла Белль, Элисон Мичалка, Лили Коллинз, Эмми Россам, Аманда Сайфред и Мэгги Грэйс пробовались на роль Грэйс Фарадэй.
Брайан Крэнстон прошел пробы на роль Макса Кеннарда, но отказался от участия из-за проблем с расписанием съемок фильма «Операция «Арго»» (2012).
Адам Броди, Джоэл Эдгертон, Люк Эванс и Джозеф Гордон-Левитт были близки к получению роли сержанта Джерри Вутерса, но роль была отдана Райану Гослингу.
В первых трейлерах фильма была мафиозная перестрелка в кинотеатре, но после трагедии на премьере «Темный рыцарь: Возрождение легенды», выход фильма был перенесен с сентября 2012 на январь 2013, сцена была вырезана, а остальное перемонтировано.
Персонаж Райана Гослинга в одной сцене шутит о том, что единственный знаменитый Микки, о котором он слышал, это Микки Маус. Будучи ребенком, Райан Гослинг снимался в сериале «ММС» (1989-1994).

MediaInfo

Общее
Полное имя :Ohotniki_na_gansterov_HDRip.avi.avi
Формат : AVI
Формат/Информация : Audio Video Interleave
Размер файла : 1,45 Гбайт
Продолжительность : 1 ч. 52 м.
Общий поток : 1842 Кбит/сек
Программа кодирования : VirtualDubMod 1.5.10.2 (build 2540/release)
Библиотека кодирования : VirtualDubMod build 2540/release
Видео
Идентификатор : 0
Формат : MPEG-4 Visual
Профиль формата : Advanced Simple@L5
Параметр BVOP формата : 1
Параметр QPel формата : Нет
Параметр GMC формата : Без точки перехода
Параметр матрицы формата : Выборочная
Идентификатор кодека : XVID
Идентификатор кодека/Подсказка : XviD
Продолжительность : 1 ч. 52 м.
Битрейт : 1449 Кбит/сек
Ширина : 720 пикселей
Высота : 304 пикселя
Соотношение сторон : 2,35:1
Частота кадров : 23,976 кадра/сек
Цветовое пространство : YUV
Субдискретизация насыщенности : 4:2:0
Битовая глубина : 8 бит
Тип развёртки : Прогрессивная
Метод сжатия : С потерями
Бит/(Пиксели*Кадры) : 0.276
Размер потока : 1,14 Гбайт (79%)
Библиотека кодирования : XviD 1.2.1 (UTC 2008-12-04)
Аудио
Идентификатор : 1
Формат : AC-3
Формат/Информация : Audio Coding 3
Расширение режима : CM (complete main)
Параметр Endianness формата : Big
Идентификатор кодека : 2000
Продолжительность : 1 ч. 52 м.
Вид битрейта : Постоянный
Битрейт : 384 Кбит/сек
Каналы : 6 каналов
Расположение каналов : Front: L C R, Side: L R, LFE
Частота : 48,0 КГц
Битовая глубина : 16 бит
Метод сжатия : С потерями
Размер потока : 310 Мбайт (21%)
Выравнивание : Разделение по промежуткам
Продолжительность промежутка : 42 мс. (1,00 видеокадр)
Время предзагрузки промежутка : 500 мс.

Скриншоты


Скачать

Скачать торрент!

Как скачивать? · Что такое торрент? · Рейтинг и ограничения

Сайт не распространяет и не хранит электронные версии произведений, а лишь предоставляет доступ к создаваемому пользователями каталогу ссылок на торрент-файлы, которые содержат только списки хеш-сумм

[Профиль] [ЛС]
Показать сообщения:    
Ответить на тему

Текущее время: Сегодня 14:13

Часовой пояс: GMT + 4



Вы не можете начинать темы
Вы не можете отвечать на сообщения
Вы не можете редактировать свои сообщения
Вы не можете удалять свои сообщения
Вы не можете голосовать в опросах
Вы не можете прикреплять файлы к сообщениям
Вы не можете скачивать файлы