Ночи в Роданте / Nights in Rodanthe (Джордж С. Вульф / George C. Wolfe) [2008, США, Австралия, драма, мелодрама, BDRip 720p] Dub + Subs (Rus, Eng) + Original (Eng)

Ответить на тему
 
Автор Сообщение

user ®

Стаж: 7 лет 7 месяцев

Сообщений: 20008

Пост Пост: #1 от 09-Авг-2013 20:30

[Цитировать]

Ночи в Роданте
Nights in Rodanthe

«Никогда не поздно начать жизнь сначала.»
Страна: США, Австралия
Жанр: Драма, мелодрама
Год выпуска: 2008
Продолжительность: 01:37:07
Перевод: Профессиональный (дублированный)
Оригинальная аудиодорожка: английский
Cубтитры: Russian (Forced, iTunes), Russian (iTunes), English
Режиссер: Джордж С. Вульф / George C. Wolfe
В ролях: Ричард Гир, Дайан Лэйн, Кристофер Мелони, Виола Дэвис, Бекки Энн Бэйкер, Скотт Гленн, Линда Моллой, Пабло Шрайбер, Мэй Уитман, Чарли Тахэн
Описание: Жизнь Эдриэн Уиллис находится в полном хаосе. Она приезжает в крошечный прибрежный город Роданта в Северной Каролине, чтобы остановиться в гостинице друга на уик-энд. Здесь она надеется найти спокойствие, она должна заново подумать о конфликтах, которые окружают ее — своенравный муж, попросивший ее вернуться к нему, и дочь, обижающаяся на каждый ее поступок. В Роданте Эдриен знакомится с мужчиной по имени Пол Фланнер, единственным гостем гостиницы. У них начинается роман во время уик-энда, который они будут помнить всю оставшуюся жизнь.
Сэмпл: http://yadi.sk/d/2P1bnpwH7j7-N
Релиз: - delia
Качество: BDRip | Контейнер: MKV | Рип: delia
Видео: 1280x534 at 23.976 fps, x264@L4.1, ~4969 kbps avg
Аудио: Russian: 48 kHz, AC3, 3/2 (L,C,R,l,r) + LFE ch, ~384 kbps avg |Дубляж, iTunes Russia|
Аудио: English: 48 kHz, AC3, 3/2 (L,C,R,l,r) + LFE ch, ~640 kbps avg
Формат субтитров: softsub (SRT)-

MediaInfo

Общее
Уникальный идентификатор                 : 208381776191897829924366611445458373782 (0x9CC4DEC992A5F72FAE14446323338C96)
Полное имя                               : C:\Users\Zerl\Downloads\Nights.in.Rodanthe.2008.720p.Bluray.Rus.Eng.HDCLUB.mkv
Формат                                   : Matroska
Версия формата                           : Version 4 / Version 2
Размер файла                             : 4,07 Гбайт
Продолжительность                        : 1 ч. 37 м.
Общий поток                              : 5994 Кбит/сек
Дата кодирования                         : UTC 2013-08-07 11:03:41
Программа кодирования                    : mkvmerge v6.3.0 ('You can't stop me!') built on Jun 28 2013 20:09:41
Библиотека кодирования                   : libebml v1.3.0 + libmatroska v1.4.0
Видео
Идентификатор                            : 1
Формат                                   : AVC
Формат/Информация                        : Advanced Video Codec
Профиль формата                          : High@L4.1
Параметр CABAC формата                   : Да
Параметр ReFrames формата                : 12 кадров
Идентификатор кодека                     : V_MPEG4/ISO/AVC
Продолжительность                        : 1 ч. 37 м.
Битрейт                                  : 4851 Кбит/сек
Ширина                                   : 1280 пикселей
Высота                                   : 534 пикселя
Соотношение сторон                       : 2,40:1
Частота кадров                           : 23,976 кадра/сек
Цветовое пространство                    : YUV
Субдискретизация насыщенности            : 4:2:0
Битовая глубина                          : 8 бит
Тип развёртки                            : Прогрессивная
Бит/(Пиксели*Кадры)                      : 0.296
Размер потока                            : 3,29 Гбайт (81%)
Библиотека кодирования                   : x264 core 135 r2345kMod f0c1c53
Настройки программы                      : cabac=1 / ref=12 / deblock=1:-3:-3 / analyse=0x3:0x113 / me=umh / subme=11 / psy=1 / fade_compensate=0.00 / psy_rd=1.15:0.05 / mixed_ref=1 / me_range=48 / chroma_me=1 / trellis=2 / 8x8dct=1 / cqm=0 / deadzone=21,11 / fast_pskip=1 / chroma_qp_offset=-3 / threads=6 / lookahead_threads=1 / sliced_threads=0 / nr=0 / decimate=1 / interlaced=0 / bluray_compat=0 / constrained_intra=0 / bframes=12 / b_pyramid=2 / b_adapt=2 / b_bias=0 / direct=3 / weightb=1 / open_gop=0 / weightp=2 / keyint=250 / keyint_min=23 / scenecut=40 / intra_refresh=0 / rc_lookahead=40 / rc=crf / mbtree=0 / crf=17.0000 / qcomp=0.75 / qpmin=0 / qpmax=69 / qpstep=4 / vbv_maxrate=62500 / vbv_bufsize=78125 / crf_max=0.0 / nal_hrd=none / ip_ratio=1.40 / pb_ratio=1.30 / aq=1:0.80
Язык                                     : English
Default                                  : Да
Forced                                   : Нет
Основные цвета                           : BT.709-5, BT.1361, IEC 61966-2-4, SMPTE RP177
Характеристики трансфера                 : BT.709-5, BT.1361
Коэффициенты матрицы                     : BT.709-5, BT.1361, IEC 61966-2-4 709, SMPTE RP177
Аудио #1
Идентификатор                            : 2
Формат                                   : AC-3
Формат/Информация                        : Audio Coding 3
Расширение режима                        : CM (complete main)
Идентификатор кодека                     : A_AC3
Продолжительность                        : 1 ч. 37 м.
Вид битрейта                             : Постоянный
Битрейт                                  : 384 Кбит/сек
Каналы                                   : 6 каналов
Расположение каналов                     : Front: L C R, Side: L R, LFE
Частота                                  : 48,0 КГц
Битовая глубина                          : 16 бит
Метод сжатия                             : С потерями
Размер потока                            : 267 Мбайт (6%)
Заголовок                                : Dub . iTunes Russia
Язык                                     : Russian
Default                                  : Да
Forced                                   : Нет
Аудио #2
Идентификатор                            : 3
Формат                                   : AC-3
Формат/Информация                        : Audio Coding 3
Расширение режима                        : CM (complete main)
Идентификатор кодека                     : A_AC3
Продолжительность                        : 1 ч. 37 м.
Вид битрейта                             : Постоянный
Битрейт                                  : 640 Кбит/сек
Каналы                                   : 6 каналов
Расположение каналов                     : Front: L C R, Side: L R, LFE
Частота                                  : 48,0 КГц
Битовая глубина                          : 16 бит
Метод сжатия                             : С потерями
Размер потока                            : 445 Мбайт (11%)
Язык                                     : English
Default                                  : Нет
Forced                                   : Нет
Текст #1
Идентификатор                            : 4
Формат                                   : UTF-8
Идентификатор кодека                     : S_TEXT/UTF8
Идентификатор кодека/Информация          : UTF-8 Plain Text
Заголовок                                : Forced, iTunes
Язык                                     : Russian
Default                                  : Да
Forced                                   : Нет
Текст #2
Идентификатор                            : 5
Формат                                   : UTF-8
Идентификатор кодека                     : S_TEXT/UTF8
Идентификатор кодека/Информация          : UTF-8 Plain Text
Заголовок                                : iTunes
Язык                                     : Russian
Default                                  : Нет
Forced                                   : Нет
Текст #3
Идентификатор                            : 6
Формат                                   : UTF-8
Идентификатор кодека                     : S_TEXT/UTF8
Идентификатор кодека/Информация          : UTF-8 Plain Text
Язык                                     : English
Default                                  : Нет
Forced                                   : Нет
Меню
00:00:00.000                             : en:00:00:00.000
00:05:35.500                             : en:00:05:35.500
00:11:49.290                             : en:00:11:49.290
00:16:42.960                             : en:00:16:42.960
00:20:38.153                             : en:00:20:38.153
00:28:58.111                             : en:00:28:58.111
00:33:01.145                             : en:00:33:01.145
00:38:47.533                             : en:00:38:47.533
00:46:24.782                             : en:00:46:24.782
00:53:50.143                             : en:00:53:50.143
01:00:54.025                             : en:01:00:54.025
01:09:40.091                             : en:01:09:40.091

-

Скриншоты

-сравнение с этим [url=http://***/forum/viewtopic.php?t=1517066]http://***/forum/viewtopic.php?t=1517066[/url]
delia vs GENESiS
-
Скачать

Скачать торрент!

Как скачивать? · Что такое торрент? · Рейтинг и ограничения

Сайт не распространяет и не хранит электронные версии произведений, а лишь предоставляет доступ к создаваемому пользователями каталогу ссылок на торрент-файлы, которые содержат только списки хеш-сумм

[Профиль] [ЛС]
Показать сообщения:    
Ответить на тему

Текущее время: Сегодня 13:50

Часовой пояс: GMT + 4



Вы не можете начинать темы
Вы не можете отвечать на сообщения
Вы не можете редактировать свои сообщения
Вы не можете удалять свои сообщения
Вы не можете голосовать в опросах
Вы не можете прикреплять файлы к сообщениям
Вы не можете скачивать файлы