Безумные / The demented (Кристофер Рузвельт / Christopher Roosevelt) [2013, США, ужасы, DVDRip] DVO (DeadSno & den904) + Original Eng

Ответить на тему
 
Автор Сообщение

user ®

Стаж: 7 лет 7 месяцев

Сообщений: 20008

Пост Пост: #1 от 09-Авг-2013 20:30

[Цитировать]

Безумные / The demented
Страна: США
Жанр: ужасы
Год выпуска: 2013
Продолжительность: 01:32:04
Перевод: Любительский (двухголосый закадровый) DeadSno & den904 по субтитрам А. Кедров
Cубтитры: нет
Оригинальная аудиодорожка: английский
Режиссер: Кристофер Рузвельт / Christopher Roosevelt
В ролях: Кайла Юэлл, Ричард Конке, Эшли Брайн, Бриттни Элгер, Сара Батлер. Майкл Уэлш, Крис Эшворт, Джесси Брукс, , Эшли Диджон, Эммануэль Кинг
Описание: Шестеро друзей-студентов собираются вместе на выходные, где им приходится бороться за свою жизнь после террористической атаки, превратившей местных жителей в яростных зомби...

Сэмпл: http://multi-up.com/892382
Качество видео: DVDRip
Формат видео: AVI
Видео: Xvid 720x400 23.98fps 1662Kbps
Аудио 1: MPEG Audio Layer 3 48000Hz stereo 192Kbps [русский]
Аудио 2: Dolby AC3 48000Hz 6 Audio Channel 448Kbps [английский]

MediaInfo

General
Complete name : D:\TORRENTS\Безумные.avi
Format : AVI
Format/Info : Audio Video Interleave
File size : 1.49 GiB
Duration : 1h 32mn
Overall bit rate : 2 316 Kbps
Writing application : VirtualDubMod 1.5.4.1 (build 2178/release)
Writing library : VirtualDubMod build 2178/release
Video
ID : 0
Format : MPEG-4 Visual
Format profile : Advanced Simple@L5
Format settings, BVOP : 2
Format settings, QPel : No
Format settings, GMC : No warppoints
Format settings, Matrix : Default (H.263)
Muxing mode : Packed bitstream
Codec ID : XVID
Codec ID/Hint : XviD
Duration : 1h 32mn
Bit rate : 1 662 Kbps
Width : 720 pixels
Height : 400 pixels
Display aspect ratio : 16:9
Frame rate : 23.976 fps
Color space : YUV
Chroma subsampling : 4:2:0
Bit depth : 8 bits
Scan type : Progressive
Compression mode : Lossy
Bits/(Pixel*Frame) : 0.241
Stream size : 1.07 GiB (72%)
Writing library : XviD 64
Audio #1
ID : 1
Format : MPEG Audio
Format version : Version 1
Format profile : Layer 3
Mode : Joint stereo
Codec ID : 55
Codec ID/Hint : MP3
Duration : 1h 32mn
Bit rate mode : Constant
Bit rate : 192 Kbps
Channel(s) : 2 channels
Sampling rate : 48.0 KHz
Compression mode : Lossy
Stream size : 126 MiB (8%)
Alignment : Aligned on interleaves
Interleave, duration : 42 ms (1.00 video frame)
Interleave, preload duration : 504 ms
Audio #2
ID : 2
Format : AC-3
Format/Info : Audio Coding 3
Mode extension : CM (complete main)
Format settings, Endianness : Big
Codec ID : 2000
Duration : 1h 32mn
Bit rate mode : Constant
Bit rate : 448 Kbps
Channel(s) : 6 channels
Channel positions : Front: L C R, Side: L R, LFE
Sampling rate : 48.0 KHz
Bit depth : 16 bits
Compression mode : Lossy
Stream size : 295 MiB (19%)
Alignment : Split accross interleaves
Interleave, duration : 42 ms (1.00 video frame)
Interleave, preload duration : 500 ms

Скриншот c названием фильма

Скриншоты

Скачать

Скачать торрент!

Как скачивать? · Что такое торрент? · Рейтинг и ограничения

Сайт не распространяет и не хранит электронные версии произведений, а лишь предоставляет доступ к создаваемому пользователями каталогу ссылок на торрент-файлы, которые содержат только списки хеш-сумм

[Профиль] [ЛС]
Показать сообщения:    
Ответить на тему

Текущее время: Сегодня 20:07

Часовой пояс: GMT + 4



Вы не можете начинать темы
Вы не можете отвечать на сообщения
Вы не можете редактировать свои сообщения
Вы не можете удалять свои сообщения
Вы не можете голосовать в опросах
Вы не можете прикреплять файлы к сообщениям
Вы не можете скачивать файлы