Звездный мальчик (Анатолий Дудоров, Евгений Зильберштейн) [1957 г., детский,семейный, сказка, DVB]

Ответить на тему
 
Автор Сообщение

user ®

Стаж: 7 лет 7 месяцев

Сообщений: 20008

Пост Пост: #1 от 08-Авг-2013 17:30

[Цитировать]

Звездный мальчик
Жанр: детский, семейный, сказка
Год выпуска: 1957
Продолжительность: 01:11:54
Режиссёр: Анатолий Дудоров, Евгений Зильберштейн
В ролях: Владимир Гуськов, Нина Крачковская, Эммануил Геллер, Нина Гребешкова, Мария Виноградова, Сергей Голованов, Надежда Румянцева.
Описание: На Землю упала звезда. Так появился на нашей планете звездный мальчик. Он был ловок и умен, но жесток и холоден. Даже свою мать, которая долгие годы искала его и поэтому явилась в отрепьях нищенки, он оттолкнул и обидел. Но судьба дала ему шанс исправить ошибки...
Доп. информация: телефильм по рассказу Оскара Уайльда

Трансляция спутникового канала "Карусель".
Качество видео: DVB
Формат видео: MPEG-PS
Видео: MPEG2 Video, 720x576 (4:3), 25 fps, 3600 kbps
Аудио: MPEG Audio (Version 1) Layer 2, 2 сh, 48 kHz, 192 kbps

MediaInfo

General
Complete name : G:\Звездный мальчик. (1957)_DVB by SLuMeP.mpg
Format : MPEG-PS
File size : 1.92 GiB
Duration : 1h 11mn
Overall bit rate mode : Variable
Overall bit rate : 3 823 Kbps
Writing library : (c) 1998-2010 Womble Multimedia, Inc. / MPEG Video Wizard DVD 5.0.0.114 (01/2010) / Apr 20 2010
Video
ID : 224 (0xE0)
Format : MPEG Video
Format version : Version 2
Format profile : Main@Main
Format settings, BVOP : Yes
Format settings, Matrix : Custom
Format settings, GOP : M=3, N=12
Duration : 1h 11mn
Bit rate mode : Variable
Bit rate : 3 555 Kbps
Maximum bit rate : 7 000 Kbps
Width : 720 pixels
Height : 576 pixels
Display aspect ratio : 4:3
Frame rate : 25.000 fps
Standard : PAL
Color space : YUV
Chroma subsampling : 4:2:0
Bit depth : 8 bits
Scan type : Interlaced
Scan order : Top Field First
Compression mode : Lossy
Bits/(Pixel*Frame) : 0.343
Time code of first frame : 00:00:00:00
Time code source : Group of pictures header
Stream size : 1.79 GiB (93%)
Writing library : (c) 1998-2010 Womble Multimedia, Inc. / MPEG Video Wizard DVD 5.0.0.114 (01/2010) / Apr 20 2010
Audio
ID : 192 (0xC0)
Format : MPEG Audio
Format version : Version 1
Format profile : Layer 2
Duration : 1h 11mn
Bit rate mode : Constant
Bit rate : 192 Kbps
Channel(s) : 2 channels
Sampling rate : 48.0 KHz
Compression mode : Lossy
Delay relative to video : -40ms
Stream size : 98.7 MiB (5%)

Скриншоты

Скачать

Скачать торрент!

Как скачивать? · Что такое торрент? · Рейтинг и ограничения

Сайт не распространяет и не хранит электронные версии произведений, а лишь предоставляет доступ к создаваемому пользователями каталогу ссылок на торрент-файлы, которые содержат только списки хеш-сумм

[Профиль] [ЛС]
Показать сообщения:    
Ответить на тему

Текущее время: Сегодня 12:27

Часовой пояс: GMT + 4



Вы не можете начинать темы
Вы не можете отвечать на сообщения
Вы не можете редактировать свои сообщения
Вы не можете удалять свои сообщения
Вы не можете голосовать в опросах
Вы не можете прикреплять файлы к сообщениям
Вы не можете скачивать файлы