Никаких проблем 2 / Нет проблем 2 / No Problem 2 / Moumantai 2 / Mou man tai 2 (Кар Лок Чин / Kar Lok Chin) [2002 г., боевик, комедия, боевые искусства, DVDRip] VO (Акира)

Ответить на тему
 
Автор Сообщение

user ®

Стаж: 13 лет

Сообщений: 15071

Пост Пост: #1 от 07-Авг-2013 23:30

[Цитировать]

Никаких проблем 2 / Нет проблем 2 / No Problem 2 / Moumantai 2 / Mou man tai 2
Год выпуска: 2002
Страна: Гонконг, Япония
Производство: Bandai Visual Company, Media Suits, Nippon Television Network Corporation (NTV)
Жанр: боевик, комедия, боевые искусства
Продолжительность: 01:39:12
Перевод: одноголосый, закадровый Акира
Режиссер: Кар Лок Чин / Kar Lok Chin
В ролях: Юэнь Бяо, Такаши Окамура, Шун Сугата, Вакана Сакай, Ким Вон Джун, Кэнди Ло, Колин Чоу, Сэм Ли, Уэйн Лай, Адам Чан, Вонг Хой-Сам, Вонг Чи-Минг, Дебби Лам, Джек Вонг, Джерри Лам, Джонни Танг...
Описание: Официант Кен очень любит гонконгские боевики и безумно хочет стать кинозвездой, но в родной Японии его не понимают, поэтому он переезжает в Гонконг. На месте он поселяется в отеле и как-то раз из-за вырубившегося электричества заходит в чужой номер, где остановился наемный убийца. В результате путаницы Кена принимают за киллера и поручают ему важное задание – убить наследницу многомиллиардного состояния Юмико. Но Кен не понимает по-канстонски, поэтому до поры до времени вообще не осознает, во что ввязался.
Автор релиза:
Качество видео: DVDRip
Формат файла: AVI
Видео: 720x384, 23.976 fps, MPEG-4 Visual, 1828 kbps
Аудио: 48 kHz, MP3, 2 ch, 128 kbps [Русский]

MediaInfo

General
Format : AVI
Format/Info : Audio Video Interleave
File size : 1.36 GiB
Duration : 1h 39mn
Overall bit rate : 1 965 Kbps
Writing application : VirtualDubMod 1.5.10.3 (build 2550/release)
Writing library : VirtualDubMod build 2550/release
Video
ID : 0
Format : MPEG-4 Visual
Format profile : Advanced Simple@L5
Format settings, BVOP : 2
Format settings, QPel : No
Format settings, GMC : No warppoints
Format settings, Matrix : Default (MPEG)
Codec ID : XVID
Codec ID/Hint : XviD
Duration : 1h 39mn
Bit rate : 1 828 Kbps
Width : 720 pixels
Height : 384 pixels
Display aspect ratio : 1.85:1
Frame rate : 23.976 fps
Color space : YUV
Chroma subsampling : 4:2:0
Bit depth : 8 bits
Scan type : Progressive
Compression mode : Lossy
Bits/(Pixel*Frame) : 0.276
Stream size : 1.27 GiB (93%)
Writing library : XviD 1.2.1 (UTC 2008-12-04)
Audio
ID : 1
Format : MPEG Audio
Format version : Version 1
Format profile : Layer 3
Mode : Joint stereo
Codec ID : 55
Codec ID/Hint : MP3
Duration : 1h 39mn
Bit rate mode : Constant
Bit rate : 128 Kbps
Channel(s) : 2 channels
Sampling rate : 48.0 KHz
Compression mode : Lossy
Stream size : 90.8 MiB (7%)
Alignment : Aligned on interleaves
Interleave, duration : 42 ms (1.00 video frame)
Interleave, preload duration : 504 ms

Обложки DVD

Скриншот c названием фильма

Скриншоты

Скачать

Скачать торрент! Никаких проблем 2 / Нет проблем 2 / No Problem 2 / Moumantai 2 / Mou man tai 2 (Кар Лок Чин / Kar Lok Chin) [2002 г., боевик, комедия, боевые искусства, DVDRip] VO (Акира)

Как скачивать? · Что такое торрент? · Рейтинг и ограничения

Сайт не распространяет и не хранит электронные версии произведений, а лишь предоставляет доступ к создаваемому пользователями каталогу ссылок на торрент-файлы, которые содержат только списки хеш-сумм

[Профиль] [ЛС]
Показать сообщения:    
Ответить на тему

Текущее время: Сегодня 16:21

Часовой пояс: GMT + 4



Вы не можете начинать темы
Вы не можете отвечать на сообщения
Вы не можете редактировать свои сообщения
Вы не можете удалять свои сообщения
Вы не можете голосовать в опросах
Вы не можете прикреплять файлы к сообщениям
Вы не можете скачивать файлы