Сокровища О.К. / Сокровища озера Кабан (Дмитрий Коробкин) [2013, США, комедия, приключения, SATRip]

Ответить на тему
 
Автор Сообщение

user ®

Стаж: 7 лет 7 месяцев

Сообщений: 20008

Пост Пост: #1 от 06-Авг-2013 11:10

[Цитировать]

Сокровища О.К. / Сокровища озера Кабан«Нет времени объяснять»- Страна: Россия
Жанр: комедия, приключения
Продолжительность: 01:31:08
Год выпуска: 2013
Субтитры: Отсутствуют-Режиссёр: Дмитрий Коробкин-В ролях: Алексей Воробьёв, Эльвира Ибрагимова, Мария Кожевникова, Байбулат Батуллин, Гоша Куценко, Сергей Шакуров, Виктор Вержбицкий, Ольга Волкова, Светлана Чуйкина, Сергей Никоненко, Юлия Березикова, В. Логвинов, Анвар Халилулаев, Халима Искандерова, Валентин Якупов, Денис Ясик, Михаил Водзуми-Описание: Во время осады Казани Иваном Грозным прекрасная ханша Сююмбике приказывает спрятать несметные богатства в озере Кабан. И вот уже 500 лет судьба клада неизвестна…
В наши дни тайна сокровищ открывается обаятельному ловеласу Кириллу, и он устремляется на поиски заветного клада. На пути к богатствам Кирилл знакомится с неприступной красавицей Гулей, которая совершенно не собирается попадать под влияние чар авантюриста. Но совместные похождения и постоянно преследующая опасность заставляют молодых людей иначе посмотреть друг на друга. И неужели только сокровища могут стать главной наградой за опасные приключения?!-
• Rip by bvsbns / Реклама вырезана-Качество: SATRip (телеканал ТНТ)
Формат: AVI
Видео: XviD, 720x400 (1.80:1), 25 fps, ~1548 kbps avg, 0.22 bit/pixel
Аудио: MP3, 44.100 kHz, 2 ch, ~128.00 kbps avg-

Подробные технические данные

Полное имя : C:\Admin\Desktop\Загрузки\Sokrovisha.O.K.2013.SATRip.aviФормат : AVIФормат/Информация : Audio Video InterleaveРазмер файла : 1,07 ГбайтПродолжительность : 1 ч. 31 м.Общий поток : 1687 Кбит/секПрограмма кодирования : VirtualDubMod 1.5.10.2 (build 2540/release)Библиотека кодирования : VirtualDubMod build 2540/release
ВидеоИдентификатор : 0Формат : MPEG-4 VisualПрофиль формата : Advanced Simple@L5Параметр BVOP формата : 2Параметр QPel формата : НетПараметр GMC формата : Без точки переходаПараметр матрицы формата : Default (MPEG)Режим смешивания : Сжатый битовый потокИдентификатор кодека : XVIDИдентификатор кодека/Подсказка : XviDПродолжительность : 1 ч. 31 м.Битрейт : 1549 Кбит/секШирина : 720 пикселейВысота : 400 пикселейСоотношение сторон : 16:9Частота кадров : 25,000 кадров/секЦветовое пространство : YUVСубдискретизация насыщенности : 4:2:0Битовая глубина : 8 битТип развёртки : ПрогрессивнаяМетод сжатия : С потерямиБит/(Пиксели*Кадры) : 0.215Размер потока : 1010 Мбайт (92%)Библиотека кодирования : XviD 62
АудиоИдентификатор : 1Формат : MPEG AudioВерсия формата : Version 1Профиль формата : Layer 3Режим : Joint stereoИдентификатор кодека : 55Идентификатор кодека/Подсказка : MP3Продолжительность : 1 ч. 31 м.Вид битрейта : ПостоянныйБитрейт : 128 Кбит/секКаналы : 2 каналаЧастота : 44,1 КГцМетод сжатия : С потерямиЗадержка видео : 20 мс.Размер потока : 83,4 Мбайт (8%)Выравнивание : Разделение по промежуткамПродолжительность промежутка : 40 мс. (1,00 видеокадр)Время предзагрузки промежутка : 500 мс.

Знаете ли вы, что...

• Подводные декорации были выстроены на озере близ села Скалистое в Крыму.
• По сюжету фильма на сцене Татарского академического театра им. Галискара Камала идет спектакль на русском языке. В реальности весь репертуар театра состоит из спектаклей на татарском языке.

Скриншоты

-
Скачать

Скачать торрент!

Как скачивать? · Что такое торрент? · Рейтинг и ограничения

Сайт не распространяет и не хранит электронные версии произведений, а лишь предоставляет доступ к создаваемому пользователями каталогу ссылок на торрент-файлы, которые содержат только списки хеш-сумм

[Профиль] [ЛС]
Показать сообщения:    
Ответить на тему

Текущее время: Сегодня 21:56

Часовой пояс: GMT + 4



Вы не можете начинать темы
Вы не можете отвечать на сообщения
Вы не можете редактировать свои сообщения
Вы не можете удалять свои сообщения
Вы не можете голосовать в опросах
Вы не можете прикреплять файлы к сообщениям
Вы не можете скачивать файлы