Орда (Андрей Прошкин) [2012, Историческая драма, DVDRip]

Ответить на тему
 
Автор Сообщение

user ®

Стаж: 7 лет 7 месяцев

Сообщений: 20008

Пост Пост: #1 от 04-Авг-2013 00:30

[Цитировать]

Орда
Жанр: Историческая драма
Год выпуска: 2012
Продолжительность: 02:09:26
Режиссёр: Андрей Прошкин
В ролях: Максим Суханов, Андрей Панин, Роза Хайруллина, Александр Яценко, Виталий Хаев, Иннокентий Дакаяров, Алексей Егоров, Федот Львов, Моге Ооржак, Толепберген Байсакалов, Даулет Абдыгапаров, Алексей Шевченков, Александр Цой.
Описание: Столица Золотой Орды город Сарай-Бату. К хану Орды Тинибеку приходят послы Папы римского, которых хан встречает крайне неприветливо, унижая их и Папу... Мать хана Джанибека Тайдула внезапно ослепла. Всевозможные лекари, знахари и шаманы безрезультатно пытались вернуть ей зрение. До Орды дошли слухи о московском митрополите Алексии, по молитвам которого творятся чудеса. В Москву прибывают ханские послы и требуют, чтобы «чудесный старик» поехал с ними в Орду и вылечил ханшу, грозя в случае отказа набегом. Под угрозой уничтожения Москвы по просьбе великого князя Ивана Ивановича Алексий вынужден отправиться в далёкое путешествие. Его сопровождает келейник Федька. Прибыв в Орду, они оказываются в сложном переплетении восточных интриг, неожиданных и жестоких событий.
Качество видео: DVDRip
Формат видео: AVI
Видео: Xvid 720x304 24fps 1945kbps
Аудио: Dolby AC3 48000Hz 6ch 448kbps

MediaInfo

General
Complete name : D:\Избранные файлы\Раздачи для ***\Орда.avi
Format : AVI
Format/Info : Audio Video Interleave
Format profile : OpenDML
File size : 2.17 GiB
Duration : 2h 9mn
Overall bit rate : 2 405 Kbps
Writing application : VirtualDubMod 1.5.10.2 (build 2540/release)
Writing library : VirtualDubMod build 2540/release
Video
ID : 0
Format : MPEG-4 Visual
Format profile : Advanced Simple@L5
Format settings, BVOP : Yes
Format settings, QPel : No
Format settings, GMC : No warppoints
Format settings, Matrix : Custom
Codec ID : XVID
Codec ID/Hint : XviD
Duration : 2h 9mn
Bit rate : 1 945 Kbps
Width : 720 pixels
Height : 304 pixels
Display aspect ratio : 2.35:1
Frame rate : 24.000 fps
Color space : YUV
Chroma subsampling : 4:2:0
Bit depth : 8 bits
Scan type : Progressive
Compression mode : Lossy
Bits/(Pixel*Frame) : 0.370
Stream size : 1.76 GiB (81%)
Writing library : XviD 1.2.1 (UTC 2008-12-04)
Audio
ID : 1
Format : AC-3
Format/Info : Audio Coding 3
Mode extension : CM (complete main)
Format settings, Endianness : Big
Codec ID : 2000
Duration : 2h 9mn
Bit rate mode : Constant
Bit rate : 448 Kbps
Channel(s) : 6 channels
Channel positions : Front: L C R, Side: L R, LFE
Sampling rate : 48.0 KHz
Bit depth : 16 bits
Compression mode : Lossy
Stream size : 415 MiB (19%)
Alignment : Split accross interleaves
Interleave, duration : 42 ms (1.00 video frame)
Interleave, preload duration : 500 ms

Скриншот c названием фильма

Скриншоты





Скачать

Скачать торрент!

Как скачивать? · Что такое торрент? · Рейтинг и ограничения

Сайт не распространяет и не хранит электронные версии произведений, а лишь предоставляет доступ к создаваемому пользователями каталогу ссылок на торрент-файлы, которые содержат только списки хеш-сумм

[Профиль] [ЛС]
Показать сообщения:    
Ответить на тему

Текущее время: Сегодня 00:28

Часовой пояс: GMT + 4



Вы не можете начинать темы
Вы не можете отвечать на сообщения
Вы не можете редактировать свои сообщения
Вы не можете удалять свои сообщения
Вы не можете голосовать в опросах
Вы не можете прикреплять файлы к сообщениям
Вы не можете скачивать файлы