Заклятие / The Conjuring (Джеймс Ван / James Wan) [2013, США, ужасы, триллер, WEBRip] Dub (CamRip) [hsubs kor]

Ответить на тему
 
Автор Сообщение

user ®

Стаж: 7 лет 7 месяцев

Сообщений: 20008

Пост Пост: #1 от 04-Авг-2013 00:30

[Цитировать]

Заклятие / The Conjuring
Страна: США
Жанр: ужасы, триллер
Год выпуска: 2013
Продолжительность: 01:47:18.192
Перевод: Профессиональный (дублированный) CamRip
Cубтитры: вшитые корейские
Оригинальная аудиодорожка: нет
Режиссер: Джеймс Ван / James Wan
В ролях: Вера Фармига, Патрик Уилсон, Рон Ливингстон, Лили Тейлор, Шэнли Касвелл, Хейли МакФарланд, Джои Кинг, Маккензи Фой, Кайла Дивер, Шэнон Кук-Чан
Описание: В основе картины лежит реальная история семьи Перрон, которые утверждали, что жили в окружении привидений, как добрых, так и злых. Духи населяли дом на Род-Айленде, в котором Перроны проживали в семидесятых годах XX века.
Сэмпл: http://multi-up.com/890479
Качество видео: WEBRip
Формат видео: AVI
Видео: XviD, 720x304 (2,35:1), 23,976 кадра/сек, 1688 Кбит/сек
Аудио: MPEG-1 Audio layer 3, 44,1 КГц, 2 канала, 128 Кбит/сек

MediaInfo

Формат : AVI
Формат/Информация : Audio Video Interleave
Размер файла : 1,37 Гбайт
Продолжительность : 1 ч. 47 м.
Общий поток : 1825 Кбит/сек
Программа кодирования : VirtualDubMod 1.5.10.2 (build 2540/release)
Библиотека кодирования : VirtualDubMod build 2540/release
Видео
Идентификатор : 0
Формат : MPEG-4 Visual
Профиль формата : Advanced Simple@L5
Параметр BVOP формата : 2
Параметр QPel формата : Нет
Параметр GMC формата : Без точки перехода
Параметр матрицы формата : Default (MPEG)
Идентификатор кодека : XVID
Идентификатор кодека/Подсказка : XviD
Продолжительность : 1 ч. 47 м.
Битрейт : 1688 Кбит/сек
Ширина : 720 пикселей
Высота : 304 пикселя
Соотношение сторон : 2,35:1
Частота кадров : 23,976 кадра/сек
Цветовое пространство : YUV
Субдискретизация насыщенности : 4:2:0
Битовая глубина : 8 бит
Тип развёртки : Прогрессивная
Метод сжатия : С потерями
Бит/(Пиксели*Кадры) : 0.322
Размер потока : 1,26 Гбайт (92%)
Библиотека кодирования : XviD 1.2.1 (UTC 2008-12-04)
Аудио
Идентификатор : 1
Формат : MPEG Audio
Версия формата : Version 1
Профиль формата : Layer 3
Идентификатор кодека : 55
Идентификатор кодека/Подсказка : MP3
Продолжительность : 1 ч. 47 м.
Вид битрейта : Постоянный
Битрейт : 128 Кбит/сек
Каналы : 2 канала
Частота : 44,1 КГц
Метод сжатия : С потерями
Размер потока : 98,2 Мбайт (7%)
Выравнивание : Разделение по промежуткам
Продолжительность промежутка : 42 мс. (1,00 видеокадр)
Время предзагрузки промежутка : 500 мс.

Скриншот c названием фильма

Скриншоты

Скачать

Скачать торрент!

Как скачивать? · Что такое торрент? · Рейтинг и ограничения

Сайт не распространяет и не хранит электронные версии произведений, а лишь предоставляет доступ к создаваемому пользователями каталогу ссылок на торрент-файлы, которые содержат только списки хеш-сумм

[Профиль] [ЛС]
Показать сообщения:    
Ответить на тему

Текущее время: Сегодня 04:10

Часовой пояс: GMT + 4



Вы не можете начинать темы
Вы не можете отвечать на сообщения
Вы не можете редактировать свои сообщения
Вы не можете удалять свои сообщения
Вы не можете голосовать в опросах
Вы не можете прикреплять файлы к сообщениям
Вы не можете скачивать файлы