Сезон убийц / Killing Season (Марк Стивен Джонсон / Mark Steven Johnson) [2013, США, Боевик, триллер, BDRip 1080p] VO (den904) + Sub Eng + Original Eng

Ответить на тему
 
Автор Сообщение

user ®

Стаж: 7 лет 7 месяцев

Сообщений: 20008

Пост Пост: #1 от 02-Авг-2013 01:25

[Цитировать]

Сезон убийц / Killing Season
Страна: США
Жанр: Боевик, триллер
Год выпуска: 2013
Продолжительность: 01:30:45
Перевод: Одноголосый закадровый den904
Cубтитры: Румынские (UTF-8), Английские (UTF-8)
Оригинальная аудиодорожка: английский
Режиссер: Марк Стивен Джонсон / Mark Steven Johnson
В ролях: Джон Траволта, Роберт Де Ниро, Майло Вентимилья, Элизабет Олин
Описание: История о ветеранах войны в Боснии — американце и сербе, которые, спустя много лет после событий в Европе, устраивают свою личную Третью мировую войну, пытаясь свести счеты.
Сэмпел
Тип релиза: BDRip 1080p
Контейнер: MKV
Видео: MPEG-4 AVC, 6600 Кбит/с, 1920x1080, 23.976 кадр/с
Аудио: Russian,384 Кбит/сек, 48.0 КГц, 6 каналов, 16 бит, AC3
Аудио 2: English,640 Кбит/сек, 48.0 КГц, 6 каналов, 16 бит, AC3

MediaInfo

Killing.Season.2013.1080p.BluRay.x264.AC3.Rus.Eng.Subs-HDWinG
Format : Matroska
File size : 4.83 GiB
Duration : 1h 30mn
Overall bit rate : 7 626 Kbps
Encoded date : UTC 2013-07-31 08:32:22
Writing application : mkvmerge v4.9.1 ('Ich will') built on Jul 11 2011 23:53:15
Writing library : libebml v1.2.1 + libmatroska v1.1.1
Video
ID : 1
Format : AVC
Format/Info : Advanced Video Codec
Format profile : High@L4.1
Format settings, CABAC : Yes
Format settings, ReFrames : 4 frames
Format settings, GOP : M=9, N=52
Codec ID : V_MPEG4/ISO/AVC
Duration : 1h 30mn
Bit rate : 6 450 Kbps
Width : 1 920 pixels
Height : 1 080 pixels
Display aspect ratio : 16:9
Frame rate : 23.976 fps
Color space : YUV
Chroma subsampling : 4:2:0
Bit depth : 8 bits
Scan type : Progressive
Bits/(Pixel*Frame) : 0.130
Stream size : 4.09 GiB (85%)
Writing library : x264 core 132 r2323+704+51 d571b1c tMod [8-bit@4:2:0 X86_64]
Encoding settings : cabac=1 / ref=4 / deblock=1:-3:-3 / analyse=0x3:0x113 / me=umh /
subme=11 / psy=1 / fade_compensate=0.00 / psy_rd=1.02:0.00 / mixed_ref=1 / me_range=32 /
chroma_me=1 / trellis=2 / 8x8dct=1 / cqm=0 / deadzone=21,11 / fast_pskip=0 / chroma_qp_offset=-2 /
threads=36 / lookahead_threads=6 / sliced_threads=0 / nr=0 / decimate=0 / interlaced=0 /
bluray_compat=0 / constrained_intra=0 / fgo=0 / bframes=8 / b_pyramid=2 / b_adapt=2 / b_bias=0 /
direct=3 / weightb=1 / open_gop=0 / weightp=2 / keyint=240 / keyint_min=24 / scenecut=40 /
intra_refresh=0 / rc_lookahead=240 / rc=crf / mbtree=1 / crf=18.2000 / qcomp=0.70 / qpmin=0 /
qpmax=69 / qpstep=4 / ip_ratio=1.20 / aq=4:0.90 / aq-sensitivity=10.00 / aq-factor=1.00:1.00:1.00 /
aq2=0 / aq3=0
Language : English
Audio #1
ID : 2
Format : AC-3
Format/Info : Audio Coding 3
Mode extension : CM (complete main)
Codec ID : A_AC3
Duration : 1h 30mn
Bit rate mode : Constant
Bit rate : 384 Kbps
Channel(s) : 6 channels
Channel positions : Front: L C R, Side: L R, LFE
Sampling rate : 48.0 KHz
Bit depth : 16 bits
Compression mode : Lossy
Stream size : 249 MiB (5%)
Language : Russian
Audio #2
ID : 3
Format : AC-3
Format/Info : Audio Coding 3
Mode extension : CM (complete main)
Codec ID : A_AC3
Duration : 1h 30mn
Bit rate mode : Constant
Bit rate : 640 Kbps
Channel(s) : 6 channels
Channel positions : Front: L C R, Side: L R, LFE
Sampling rate : 48.0 KHz
Bit depth : 16 bits
Compression mode : Lossy
Stream size : 415 MiB (8%)
Language : English
Text #1
ID : 4
Format : UTF-8
Codec ID : S_TEXT/UTF8
Codec ID/Info : UTF-8 Plain Text
Title : Romanian
Language : Romanian
Text #2
ID : 5
Format : UTF-8
Codec ID : S_TEXT/UTF8
Codec ID/Info : UTF-8 Plain Text
Language : English

x264.log

x264 [info]: frame I:1003 Avg QP:14.94 size:161381
x264 [info]: frame P:38515 Avg QP:17.95 size: 61792
x264 [info]: frame B:91017 Avg QP:18.93 size: 21423
x264 [info]: consecutive B-frames: 4.4% 12.8% 5.1% 60.2% 5.1% 2.5% 1.2% 7.6% 1.0%

Скриншоты

Скачать

Скачать торрент!

Как скачивать? · Что такое торрент? · Рейтинг и ограничения

Сайт не распространяет и не хранит электронные версии произведений, а лишь предоставляет доступ к создаваемому пользователями каталогу ссылок на торрент-файлы, которые содержат только списки хеш-сумм

[Профиль] [ЛС]
Показать сообщения:    
Ответить на тему

Текущее время: Сегодня 04:15

Часовой пояс: GMT + 4



Вы не можете начинать темы
Вы не можете отвечать на сообщения
Вы не можете редактировать свои сообщения
Вы не можете удалять свои сообщения
Вы не можете голосовать в опросах
Вы не можете прикреплять файлы к сообщениям
Вы не можете скачивать файлы