Транс / Trance (Дэнни Бойл / Danny Boyle) [2013, Великобритания, Франция, триллер, драма, криминал, детектив, BDRip-AVC] VO + Sub Rus + Original Eng

Ответить на тему
 
Автор Сообщение

user ®

Стаж: 7 лет 7 месяцев

Сообщений: 20008

Пост Пост: #1 от 01-Авг-2013 16:20

[Цитировать]

Транс / Trance
Страна: Великобритания, Франция
Жанр: триллер, драма, криминал, детектив
Год выпуска: 2013
Продолжительность: 01:41:19
Перевод: Одноголосый закадровый озвучка Михаил Чадов ( ненормативная лексика )
Cубтитры: русские
Оригинальная аудиодорожка: английский
Режиссер: Дэнни Бойл / Danny Boyle
В ролях: Джеймс МакЭвой, Венсан Кассель, Розарио Доусон, Дэнни Сапани, Мэттью Кросс, Вахаб Ахмед Шейх, Марк Полтимор, Таппенс Мидлтон, Саймон Кунц, Майкл Шэйффер, Тони Джайавардена, Винсент Монтуэль
Описание: Аукционер Саймон не в силах противостоять искушению - вступает в сговор с бандой грабителей и организует похищение уникального лота стоимостью в миллионы долларов. Однако налет оканчивается не совсем так, как он предполагал вначале. Аукционера оглушают ударом тупого предмета по голове, в результате которого он теряет какие бы то ни было воспоминания о том, что произошло.
Разумеется, он также забывает, куда спрятал ценную картину. Пытками добиться ответа от ничего не понимающего Саймона не удается. Тогда главарь банды решает нанять психотерапевта, чтобы она смогла выудить ценную информацию из поврежденного мозга заложника. По мере того, как девушка пробивается сквозь нейронную защиту, ставки растут как на дрожжах. Границы между страстью и жестокостью, реальностью и вымыслом тускнеют и вовсе готовы испариться. В конечном итоге становится не ясно - кто же у кого в заложниках?
Доп. информация: Перевод делался для HD TRACKER, имя переводчика неизвестно, редакция перевода и озвучка Михаил Чадов, работа со звуком лорди74, автор рипа Скажутин.
Сэмпл: http://multi-up.com/889859
Качество видео: BDRip-AVC
Формат видео: MKV
Видео: 2180 Кбит/сек, 960*400 (2,40:1), в 23,976 кадра/сек, AVC
Аудио: Russian, 448 Кбит/сек, 48,0 КГц, 16 бит, 6 каналов, АС-3
Аудио 2: English, 448 Кбит/сек, 48,0 КГц, 16 бит, 6 каналов, АС-3
Формат субтитров: softsub (SRT)

MediaInfo

Общее
Уникальный идентификатор : 244692038911319561894689400471852907719 (0xB815F8F50E2A99288107CBF9BB9F7CC7)
Полное имя : E:\МОНТАЖ\Trance.mkv
Формат : Matroska
Версия формата : Version 4 / Version 2
Размер файла : 2,17 Гбайт
Продолжительность : 1 ч. 41 м.
Общий поток : 3070 Кбит/сек
Название фильма : Trance (2013)
Дата кодирования : UTC 2013-07-31 11:20:27
Программа кодирования : mkvmerge v6.2.0 ('Promised Land') built on Apr 28 2013 12:22:01
Библиотека кодирования : libebml v1.3.0 + libmatroska v1.4.0
Attachment : Yes
Видео
Идентификатор : 1
Формат : AVC
Формат/Информация : Advanced Video Codec
Профиль формата : High@L4.1
Параметр CABAC формата : Да
Параметр ReFrames формата : 10 кадров
Идентификатор кодека : V_MPEG4/ISO/AVC
Продолжительность : 1 ч. 41 м.
Битрейт : 2180 Кбит/сек
Ширина : 960 пикселей
Высота : 400 пикселей
Соотношение сторон : 2,40:1
Режим частоты кадров : Постоянный
Частота кадров : 23,976 кадра/сек
Цветовое пространство : YUV
Субдискретизация насыщенности : 4:2:0
Битовая глубина : 8 бит
Тип развёртки : Прогрессивная
Бит/(Пиксели*Кадры) : 0.237
Размер потока : 1,50 Гбайт (69%)
Библиотека кодирования : x264 core 133 r2334 a3ac64b
Настройки программы : cabac=1 / ref=10 / deblock=1:-2:-2 / analyse=0x3:0x113 / me=umh / subme=11 / psy=1 / psy_rd=1.10:0.00 / mixed_ref=1 / me_range=48 / chroma_me=1 / trellis=2 / 8x8dct=1 / cqm=0 / deadzone=21,11 / fast_pskip=0 / chroma_qp_offset=-2 / threads=6 / lookahead_threads=1 / sliced_threads=0 / nr=0 / decimate=1 / interlaced=0 / bluray_compat=0 / constrained_intra=0 / bframes=10 / b_pyramid=2 / b_adapt=2 / b_bias=0 / direct=3 / weightb=1 / open_gop=0 / weightp=2 / keyint=250 / keyint_min=23 / scenecut=40 / intra_refresh=0 / rc_lookahead=60 / rc=2pass / mbtree=0 / bitrate=2180 / ratetol=1.0 / qcomp=0.70 / qpmin=0 / qpmax=69 / qpstep=4 / cplxblur=20.0 / qblur=0.5 / vbv_maxrate=62500 / vbv_bufsize=78125 / nal_hrd=none / ip_ratio=1.40 / pb_ratio=1.30 / aq=1:0.90
Язык : English
Default : Да
Forced : Нет
Основные цвета : BT.709
Характеристики трансфера : BT.709
Коэффициенты матрицы : BT.709
Аудио #1
Идентификатор : 2
Формат : AC-3
Формат/Информация : Audio Coding 3
Расширение режима : CM (complete main)
Параметр Endianness формата : Big
Идентификатор кодека : A_AC3
Продолжительность : 1 ч. 41 м.
Вид битрейта : Постоянный
Битрейт : 448 Кбит/сек
Каналы : 6 каналов
Расположение каналов : Front: L C R, Side: L R, LFE
Частота : 48,0 КГц
Битовая глубина : 16 бит
Метод сжатия : С потерями
Размер потока : 325 Мбайт (15%)
Заголовок : VO, Чадов
Язык : Russian
Default : Да
Forced : Нет
Аудио #2
Идентификатор : 3
Формат : AC-3
Формат/Информация : Audio Coding 3
Расширение режима : CM (complete main)
Параметр Endianness формата : Big
Идентификатор кодека : A_AC3
Продолжительность : 1 ч. 41 м.
Вид битрейта : Постоянный
Битрейт : 448 Кбит/сек
Каналы : 6 каналов
Расположение каналов : Front: L C R, Side: L R, LFE
Частота : 48,0 КГц
Битовая глубина : 16 бит
Метод сжатия : С потерями
Размер потока : 325 Мбайт (15%)
Язык : English
Default : Нет
Forced : Нет
Текст #1
Идентификатор : 4
Формат : UTF-8
Идентификатор кодека : S_TEXT/UTF8
Идентификатор кодека/Информация : UTF-8 Plain Text
Язык : Russian
Default : Нет
Forced : Нет
Текст #2
Идентификатор : 5
Формат : UTF-8
Идентификатор кодека : S_TEXT/UTF8
Идентификатор кодека/Информация : UTF-8 Plain Text
Язык : English
Default : Нет
Forced : Нет
Меню
00:00:00.000 : en:Chapter 1
00:04:05.870 : en:Chapter 2
00:08:18.831 : en:Chapter 3
00:10:09.859 : en:Chapter 4
00:13:06.785 : en:Chapter 5
00:15:42.650 : en:Chapter 6
00:17:33.677 : en:Chapter 7
00:21:57.274 : en:Chapter 8
00:23:46.633 : en:Chapter 9
00:25:54.719 : en:Chapter 10
00:28:11.398 : en:Chapter 11
00:31:08.533 : en:Chapter 12
00:33:40.643 : en:Chapter 13
00:36:31.272 : en:Chapter 14
00:39:10.723 : en:Chapter 15
00:41:49.340 : en:Chapter 16
00:45:58.881 : en:Chapter 17
00:51:51.483 : en:Chapter 18
00:59:00.286 : en:Chapter 19
01:02:10.893 : en:Chapter 20
01:08:08.584 : en:Chapter 21
01:12:06.822 : en:Chapter 22
01:14:36.138 : en:Chapter 23
01:16:13.151 : en:Chapter 24
01:25:36.548 : en:Chapter 25
01:28:16.290 : en:Chapter 26
01:31:34.780 : en:Chapter 27
01:35:32.768 : en:Chapter 28

Скриншот c названием фильма

Скриншоты

Скачать

Скачать торрент!

Как скачивать? · Что такое торрент? · Рейтинг и ограничения

Сайт не распространяет и не хранит электронные версии произведений, а лишь предоставляет доступ к создаваемому пользователями каталогу ссылок на торрент-файлы, которые содержат только списки хеш-сумм

[Профиль] [ЛС]
Показать сообщения:    
Ответить на тему

Текущее время: Сегодня 06:04

Часовой пояс: GMT + 4



Вы не можете начинать темы
Вы не можете отвечать на сообщения
Вы не можете редактировать свои сообщения
Вы не можете удалять свои сообщения
Вы не можете голосовать в опросах
Вы не можете прикреплять файлы к сообщениям
Вы не можете скачивать файлы