Всё просто (Соня Карпунина) [2012, мелодрама, комедия, DVDRip]

Ответить на тему
 
Автор Сообщение

user ®

Стаж: 7 лет 7 месяцев

Сообщений: 20008

Пост Пост: #1 от 01-Авг-2013 09:37

[Цитировать]

Всё просто- Жанр: мелодрама, комедия
Год выпуска: 2012
Продолжительность: 01:34:41-Режиссер: Софья Карпунина
В ролях: Софья Карпунина, Клим Шипенко, Агния Кузнецова, Константин Крюков, Александр Яценко, Артём Быстров, Александр Самойленко, Любовь Толкалина, Михаил Бабичев, Донатас Грудович, Гела Месхи, Яна Аносова, Вадим Верник, Алина Алексеева-Описание: Надя учится в Лондоне, где родители обеспечили ей возможность жить без особых забот и хлопот. Женя делает карьеру в Москве, куда ему приходится уехать из-за перспективной работы. Но разве 3000 километров могут разлучить любящие сердца? Надя решает сделать Жене сюрприз – приехать в гости без предупреждения. В итоге сюрпризы ожидают не только Женю, но и Надю...-Доп. информация:
Сценарий: Софья Карпунина, Клим Шипенко
Продюсер: Владимир Малышев, Андрей Малышев, Тимур Вайнштейн, Клим Шипенко, Александр Сотников
Оператор: Андрей Иванов
Композитор: Галя Чикис
Сборы в России: $71 916
Релиз на DVD: 22 января 2013, «Парадиз Медиа»

-Качество видео: DVDRip
Формат видео: AVI
Видео: 720x304 (2.37:1), 25 fps, XviD 1.2.1, 1797 kbps avg, 0.33 bit/pixel
Аудио: 48 kHz, AC3 Dolby Digital, 3/2 (L,C,R,l,r) + LFE ch, 384 kbps-

Media Info

General
Complete name : F:\Vsjo.prosto.2012_O.DVDRip.avi
Format : AVI
Format/Info : Audio Video Interleave
File size : 1.45 GiB
Duration : 1h 34mn
Overall bit rate : 2 191 Kbps
Movie name : Vsjo.prosto.2012.O.DVDRip
Genre : Romance / Comedy
Writing application : VirtualDubMod 1.5.10.2 (build 2540/release)
Original source form/Name : Movie
Video
ID : 0
Format : MPEG-4 Visual
Format profile : Advanced Simple@L5
Format settings, BVOP : 1
Format settings, QPel : No
Format settings, GMC : No warppoints
Format settings, Matrix : Custom
Codec ID : XVID
Codec ID/Hint : XviD
Duration : 1h 34mn
Bit rate : 1 798 Kbps
Width : 720 pixels
Height : 304 pixels
Display aspect ratio : 2.35:1
Frame rate : 25.000 fps
Color space : YUV
Chroma subsampling : 4:2:0
Bit depth : 8 bits
Scan type : Progressive
Compression mode : Lossy
Bits/(Pixel*Frame) : 0.329
Stream size : 1.19 GiB (82%)
Writing library : XviD 1.2.1 (UTC 2008-12-04)
Audio
ID : 1
Format : AC-3
Format/Info : Audio Coding 3
Mode extension : CM (complete main)
Format settings, Endianness : Big
Codec ID : 2000
Duration : 1h 34mn
Bit rate mode : Constant
Bit rate : 384 Kbps
Channel(s) : 6 channels
Channel positions : Front: L C R, Side: L R, LFE
Sampling rate : 48.0 KHz
Bit depth : 16 bits
Compression mode : Lossy
Delay relative to video : 1s 600ms
Stream size : 260 MiB (18%)
Alignment : Split accross interleaves
Interleave, duration : 40 ms (1.00 video frame)
Interleave, preload duration : 500 ms

Скриншот с названием фильма

Скриншоты

Скачать

Скачать торрент!

Как скачивать? · Что такое торрент? · Рейтинг и ограничения

Сайт не распространяет и не хранит электронные версии произведений, а лишь предоставляет доступ к создаваемому пользователями каталогу ссылок на торрент-файлы, которые содержат только списки хеш-сумм

[Профиль] [ЛС]
Показать сообщения:    
Ответить на тему

Текущее время: Сегодня 21:56

Часовой пояс: GMT + 4



Вы не можете начинать темы
Вы не можете отвечать на сообщения
Вы не можете редактировать свои сообщения
Вы не можете удалять свои сообщения
Вы не можете голосовать в опросах
Вы не можете прикреплять файлы к сообщениям
Вы не можете скачивать файлы