Событие (Андрей Эшпай) [2008, драма, DVDRip]

Ответить на тему
 
Автор Сообщение

user ®

Стаж: 7 лет 7 месяцев

Сообщений: 20008

Пост Пост: #1 от 01-Авг-2013 09:35

[Цитировать]

Событие
Жанр: драма
Год выпуска: 2008
Продолжительность: 01:50:55
Режиссёр: Андрей Эшпай
В ролях: Чулпан Хаматова, Игорь Гордин, Евгения Симонова, Зоя Кайдановская, Сергей Перелыгин, Ольга Прокофьева, Генриэтта Егорова, Инга Стрелкова-Оболдина, Сергей Дрейден, Татьяна Орлова, Елена Коренева, Юрий Нифонтов, Евгений Цыганов, Вячеслав Баранов, Томас Моцкус, Юрий Колокольников, Ольга Лапшина, Маша Лапшина, Алёша Славкин, Володя Курзямов, Таня Гамза
Описание: В центре картины - история художника Трощейкина, его жены Любы, ее матери и сестры. Они живут за границей, в провинциальном маленьком городке, населенном соотечественниками. Неожиданное возвращение в город некоего Барбашина переворачивает жизнь семьи. Пять лет тому назад этот человек стрелял в Трощейкина и его жену, ранил их и, попав в тюрьму, пообещал вернуться и закончить начатое…
Доп. информация: По мотивам одноименной пьесы Владимира Набокова.
Сценарий: Андрей Эшпай
Оператор: Шандор Беркеши
Художник: Ольга Осипова
Композитор: Андрей Леденев
Награды: диплом Гильдии киноведов и кинокритиков, гран-при в конкурсе дебютов "Перспектива" на 31 ММКФ (2009); специальный диплом жюри "За оригинальное решение драматургии великого русского писателя Владимира Набокова" на III МКФ "Русское зарубежье" (Москва, 2010)
Ограничения на просмотр: зрителям, достигшим 14 лет

Аудиодорожка скопирована с исходного DVD без перекодирования.
Качество видео: DVDRip
Формат видео: AVI
Видео: 720x432 (1.67:1), 25 fps, XviD 64, 2400 kbps avg, 0.31 bit/pixel
Аудио: 48 kHz, AC3 Dolby Digital, 2/0 (L,R) ch, 256 kbps

MediaInfo

Полное имя : Sobytie.avi
Формат : AVI
Формат/Информация : Audio Video Interleave
Профиль формата : OpenDML
Размер файла : 2,07 Гбайт
Продолжительность : 1 ч. 50 м.
Общий поток : 2669 Кбит/сек
Программа кодирования : VirtualDubMod 1.5.10.3 (build 2550/release)
Библиотека кодирования : VirtualDubMod build 2550/release
Видео
Идентификатор : 0
Формат : MPEG-4 Visual
Профиль формата : Advanced Simple@L5
Параметр BVOP формата : 2
Параметр QPel формата : Нет
Параметр GMC формата : Без точки перехода
Параметр матрицы формата : Выборочная
Идентификатор кодека : XVID
Идентификатор кодека/Подсказка : XviD
Продолжительность : 1 ч. 50 м.
Битрейт : 2400 Кбит/сек
Ширина : 720 пикселей
Высота : 432 пикселя
Соотношение сторон : 1,667
Частота кадров : 25,000 кадров/сек
Цветовое пространство : YUV
Субдискретизация насыщенности : 4:2:0
Битовая глубина : 8 бит
Тип развёртки : Прогрессивная
Метод сжатия : С потерями
Бит/(Пиксели*Кадры) : 0.309
Размер потока : 1,86 Гбайт (90%)
Библиотека кодирования : XviD 64
Аудио
Идентификатор : 1
Формат : AC-3
Формат/Информация : Audio Coding 3
Расширение режима : CM (complete main)
Параметр Endianness формата : Big
Идентификатор кодека : 2000
Продолжительность : 1 ч. 50 м.
Вид битрейта : Постоянный
Битрейт : 256 Кбит/сек
Каналы : 2 канала
Расположение каналов : Front: L R
Частота : 48,0 КГц
Битовая глубина : 16 бит
Метод сжатия : С потерями
Размер потока : 203 Мбайт (10%)
Выравнивание : Разделение по промежуткам
Продолжительность промежутка : 40 мс. (1,00 видеокадр)
Время предзагрузки промежутка : 500 мс.

Скриншоты c названием и годом выпуска фильма

Скриншоты

Скачать

Скачать торрент!

Как скачивать? · Что такое торрент? · Рейтинг и ограничения

Сайт не распространяет и не хранит электронные версии произведений, а лишь предоставляет доступ к создаваемому пользователями каталогу ссылок на торрент-файлы, которые содержат только списки хеш-сумм

[Профиль] [ЛС]
Показать сообщения:    
Ответить на тему

Текущее время: Сегодня 07:52

Часовой пояс: GMT + 4



Вы не можете начинать темы
Вы не можете отвечать на сообщения
Вы не можете редактировать свои сообщения
Вы не можете удалять свои сообщения
Вы не можете голосовать в опросах
Вы не можете прикреплять файлы к сообщениям
Вы не можете скачивать файлы