Удиви меня (Андрей Щербинин) [2011, детектив, мелодрама, HDTVRip]

Ответить на тему
 
Автор Сообщение

user ®

Стаж: 7 лет 7 месяцев

Сообщений: 20008

Пост Пост: #1 от 01-Авг-2013 09:35

[Цитировать]

Удиви меня
Жанр: детектив, мелодрама
Год выпуска: 2011
Продолжительность: 01:26:44
Режиссёр: Андрей Щербинин
В ролях: Светлана Ходченкова, Пётр Красилов, Борис Галкин, Алексей Аникин, Наталья Бардо, Дмитрий Блажко, Вячеслав Бухаров, Роман Гапанюк, Ирина Егорова, Дмитрий Заволокин, Мария Кириллова, Александр Корженков, Владимир Косухин, Елена Лущеко-Квасникова, Виктор Рябов, Альбина Скобелева, Юрий Скулябин, Вадим Цаллати, Алексей Цокур, Маргарита Иванова-Донская
Описание: Герои фильма - два молодых современных человека, Роман Зубов и Багира. Он, майор особого отдела МУРа, ищет преступника, который шантажом и обманом вымогает у богатых людей крупные суммы денег. Она - его любимая девушка. В ходе расследования Зубов узнаёт, что все деньги преступник тратит не на себя и свою выгоду, а отдает тем, кто действительно нуждается в этих деньгах: мигранты, мать-одиночка, которая пытается спасти своего ребенка и найти денег на дорогостоящую операцию. И это странное поведение – не единственное, чем преступник удивит Романа в этой «игре»...
Релиз от
Семпл
Качество видео: HDTVRip
Формат видео: AVI
Видео: 720x400 (1.80:1), 25 fps, XviD 1.2.1, 2054 kbps avg, 0.28 bit/pixel
Аудио: 48 kHz, AC3 Dolby Digital, 2/0 (L,R) ch, 192.00 kbps avg

MediaInfo

General
Complete name : Udivi.menya.2011..XviD.HDTVRip.Files-x.avi
Format : AVI
Format/Info : Audio Video Interleave
File size : 1.37 GiB
Duration : 1h 26mn
Overall bit rate : 2 256 Kbps
Writing application : VirtualDubMod 1.5.10.3 (build 2550/release)
Writing library : VirtualDubMod build 2550/release
Video
ID : 0
Format : MPEG-4 Visual
Format profile : Advanced Simple@L5
Format settings, BVOP : 1
Format settings, QPel : No
Format settings, GMC : No warppoints
Format settings, Matrix : Default (H.263)
Codec ID : XVID
Codec ID/Hint : XviD
Duration : 1h 26mn
Bit rate : 2 054 Kbps
Width : 720 pixels
Height : 400 pixels
Display aspect ratio : 16:9
Frame rate : 25.000 fps
Color space : YUV
Chroma subsampling : 4:2:0
Bit depth : 8 bits
Scan type : Progressive
Compression mode : Lossy
Bits/(Pixel*Frame) : 0.285
Stream size : 1.24 GiB (91%)
Writing library : XviD 1.2.1 (UTC 2008-12-04)
Audio
ID : 1
Format : AC-3
Format/Info : Audio Coding 3
Mode extension : CM (complete main)
Format settings, Endianness : Big
Codec ID : 2000
Duration : 1h 26mn
Bit rate mode : Constant
Bit rate : 192 Kbps
Channel(s) : 2 channels
Channel positions : Front: L R
Sampling rate : 48.0 KHz
Bit depth : 16 bits
Compression mode : Lossy
Stream size : 119 MiB (9%)
Alignment : Split accross interleaves
Interleave, duration : 40 ms (1.00 video frame)
Interleave, preload duration : 500 ms

Скриншот c названием фильма

Скриншоты

Скачать

Скачать торрент!

Как скачивать? · Что такое торрент? · Рейтинг и ограничения

Сайт не распространяет и не хранит электронные версии произведений, а лишь предоставляет доступ к создаваемому пользователями каталогу ссылок на торрент-файлы, которые содержат только списки хеш-сумм

[Профиль] [ЛС]
Показать сообщения:    
Ответить на тему

Текущее время: Сегодня 22:34

Часовой пояс: GMT + 4



Вы не можете начинать темы
Вы не можете отвечать на сообщения
Вы не можете редактировать свои сообщения
Вы не можете удалять свои сообщения
Вы не можете голосовать в опросах
Вы не можете прикреплять файлы к сообщениям
Вы не можете скачивать файлы