Крепкий брак (Леонид Мазор) [2012 г., Лирическая мелодрама, SATRip]

Ответить на тему
 
Автор Сообщение

user ®

Стаж: 7 лет 7 месяцев

Сообщений: 20008

Пост Пост: #1 от 01-Авг-2013 09:35

[Цитировать]

Крепкий бракГод выпуска: 2012.
Страна: Россия .
Киностудия: Амедиа.
Жанр: Лирическая мелодрама.
Продолжительность: 01:29:26.
Режиссер: Леонид Мазор.
Авторы сценария: Михаил Марфин, Леонид Мазор.
Оператор: Ростислав Пирумов.
Композитор: Яков Перадзе.
Художник: Александр Арефьев.
В ролях:
Юлия Меньшова, Камиль Ларин, Наталья Ноздрина, Андрей Межулис, Ирина Бякова, Павел Ворожцов, Яна Аносова, Максим Туранцев, Анна Скиданова.
Описание:
Выдав замуж свою 20-летнюю дочь, супруги Алексей и Марина вдруг понимают, что в жизненном реестре поставлена последняя галочка: квартира есть, бизнес функционирует, чадо пристроено. Казалось бы, можно уже пожить для себя, но тут муж и жена ссорятся, а потом заключают пари: тот, кто первым будет пойман на адюльтере или попросится назад, в семью, теряет и бизнес, и квартиру. В начавшейся войне в ход идет все – даже инструкция по соблазнению собственного мужа, которую супруга коварно отдает секретарше своего благоверного. Сможет ли муж сопротивляться подобной атаке?..
Доп. информация:
Премьера: 25 ноября 2012 года (Интер, Украина), 1 мая 2013 года (Россия-1).

Еще постер


Качество: SATRip
Формат: AVI
Видео: 640x352 (1.82:1), 25 fps, XviD build 73 ~1023 kbps avg, 0.18 bit/pixel
Аудио: 48 kHz, MPEG Layer 3, 2 ch, ~128.00 kbps avg

Отчет MediaInfo

Общее
Полное имя : Krepkij.brak.2012.XviD.SATRip_743.avi
Формат : AVI
Формат/Информация : Audio Video Interleave
Размер файла : 743 Мбайт
Продолжительность : 1 ч. 29 м.
Общий поток : 1161 Кбит/сек
Программа кодирования : VirtualDubMod 1.5.10.3 | www.virtualdub-fr.org || (build 2550/release)
Библиотека кодирования : VirtualDubMod build 2550/release
Видео
Идентификатор : 0
Формат : MPEG-4 Visual
Профиль формата : Advanced Simple@L5
Параметр BVOP формата : 2
Параметр QPel формата : Нет
Параметр GMC формата : Без точки перехода
Параметр матрицы формата : Выборочная
Идентификатор кодека : XVID
Идентификатор кодека/Подсказка : XviD
Продолжительность : 1 ч. 29 м.
Битрейт : 1023 Кбит/сек
Ширина : 640 пикселей
Высота : 352 пикселя
Соотношение сторон : 16:9
Частота кадров : 25,000 кадров/сек
Цветовое пространство : YUV
Субдискретизация насыщенности : 4:2:0
Битовая глубина : 8 бит
Тип развёртки : Прогрессивная
Метод сжатия : С потерями
Бит/(Пиксели*Кадры) : 0.182
Размер потока : 655 Мбайт (88%)
Библиотека кодирования : XviD 73
Аудио
Идентификатор : 1
Формат : MPEG Audio
Версия формата : Version 1
Профиль формата : Layer 3
Идентификатор кодека : 55
Идентификатор кодека/Подсказка : MP3
Продолжительность : 1 ч. 29 м.
Вид битрейта : Постоянный
Битрейт : 128 Кбит/сек
Каналы : 2 канала
Частота : 48,0 КГц
Метод сжатия : С потерями
Размер потока : 81,9 Мбайт (11%)
Выравнивание : Соединение по промежуткам
Продолжительность промежутка : 40 мс. (1,00 видеокадр)
Время предзагрузки промежутка : 504 мс.
Библиотека кодирования : LAME3.99r
Настройки программы : -m s -V 4 -q 2 -lowpass 17 -b 128

Скриншот с названием

Скриншоты

Альтернативный хост

Скачать

Скачать торрент!

Как скачивать? · Что такое торрент? · Рейтинг и ограничения

Сайт не распространяет и не хранит электронные версии произведений, а лишь предоставляет доступ к создаваемому пользователями каталогу ссылок на торрент-файлы, которые содержат только списки хеш-сумм

[Профиль] [ЛС]
Показать сообщения:    
Ответить на тему

Текущее время: Сегодня 20:39

Часовой пояс: GMT + 4



Вы не можете начинать темы
Вы не можете отвечать на сообщения
Вы не можете редактировать свои сообщения
Вы не можете удалять свои сообщения
Вы не можете голосовать в опросах
Вы не можете прикреплять файлы к сообщениям
Вы не можете скачивать файлы