Любовь с первого вздоха (Ольга Ланд) [2013, Комедия, SATRip]

Ответить на тему
 
Автор Сообщение

user ®

Стаж: 7 лет 7 месяцев

Сообщений: 20008

Пост Пост: #1 от 01-Авг-2013 09:34

[Цитировать]

Любовь с первого вздоха
Жанр: Комедия
Производство: Россия, "ЛАНД СИНЕМА"
Год выпуска: 2013
Продолжительность: 01:37:34
Режиссёр: Ольга Ланд
В ролях: Анна Антонова, Ярослав Воронцов, Татьяна Колганова, Андрей Мокеев, Игорь Гордин, Зоя Буряк, Рина Гришина
Описание: Марина — молодая аспирантка, готовясь к защите диссертации по новому типу дыхательной смеси для аквалангистов, делает ошибку в расчетах, в результате её смесь дает «любовный эффект». Проверяя состав своей смеси на себе, она «влюбляется» в своего научного руководителя — Котова, который давно мечтал затащить в постель молоденькую аспирантку. Но пригубив вместе с Мариной коньяка на брудершафт, он получает пощечину. Алкоголь блокирует действие смеси.Вместе с Мариной в университете трудится кандидат наук Серов, у него большие неприятности из-за завкафедрой Глебовой. Марина предлагает Серову сделку: она помогает «влюбить» в него Глебову, а он должен помочь с защитой диссертации. Пройдя через различные коллизии Марина и Серов понимают, что любят друг друга — и это настоящая химия любви…
Релиз от:
Сэмпл
Качество видео: SATRip
Формат видео: AVI
Видео: 720x400 (1.80:1), 25 fps, XviD build 50 ~1808 kbps avg, 0.25 bit/pixel
Аудио: 48 kHz, MPEG Layer 3, 2 ch, ~192.00 kbps avg

MediaInfo

General
Complete name : V:\ftp4\Videos\Lyubov.s.pervogo.vzdokha.2013.SATRip.Files-x.avi
Format : AVI
Format/Info : Audio Video Interleave
File size : 1.37 GiB
Duration : 1h 37mn
Overall bit rate : 2 010 Kbps
Writing application : VirtualDubMod 1.5.10.3 | www.virtualdub-fr.org || (build 2550/release)
Writing library : VirtualDubMod build 2550/release
Video
ID : 0
Format : MPEG-4 Visual
Format profile : Advanced Simple@L5
Format settings, BVOP : 1
Format settings, QPel : No
Format settings, GMC : No warppoints
Format settings, Matrix : Default (H.263)
Codec ID : XVID
Codec ID/Hint : XviD
Duration : 1h 37mn
Bit rate : 1 809 Kbps
Width : 720 pixels
Height : 400 pixels
Display aspect ratio : 16:9
Frame rate : 25.000 fps
Color space : YUV
Chroma subsampling : 4:2:0
Bit depth : 8 bits
Scan type : Progressive
Compression mode : Lossy
Bits/(Pixel*Frame) : 0.251
Stream size : 1.23 GiB (90%)
Writing library : XviD 1.2.1 (UTC 2008-12-04)
Audio
ID : 1
Format : MPEG Audio
Format version : Version 1
Format profile : Layer 3
Codec ID : 55
Codec ID/Hint : MP3
Duration : 1h 37mn
Bit rate mode : Constant
Bit rate : 192 Kbps
Channel(s) : 2 channels
Sampling rate : 48.0 KHz
Compression mode : Lossy
Stream size : 134 MiB (10%)
Alignment : Aligned on interleaves
Interleave, duration : 40 ms (1.00 video frame)
Interleave, preload duration : 504 ms
Writing library : LAME3.98r
Encoding settings : -m s -V 4 -q 2 -lowpass 18.6 -b 192

Скриншот c названием фильма

Скриншоты

Скачать

Скачать торрент!

Как скачивать? · Что такое торрент? · Рейтинг и ограничения

Сайт не распространяет и не хранит электронные версии произведений, а лишь предоставляет доступ к создаваемому пользователями каталогу ссылок на торрент-файлы, которые содержат только списки хеш-сумм

[Профиль] [ЛС]
Показать сообщения:    
Ответить на тему

Текущее время: Сегодня 19:37

Часовой пояс: GMT + 4



Вы не можете начинать темы
Вы не можете отвечать на сообщения
Вы не можете редактировать свои сообщения
Вы не можете удалять свои сообщения
Вы не можете голосовать в опросах
Вы не можете прикреплять файлы к сообщениям
Вы не можете скачивать файлы