Жених по объявлению (Владимир Чубриков) [2012, Россия, Мелодрама, DVB]

Ответить на тему
 
Автор Сообщение

user ®

Стаж: 7 лет 7 месяцев

Сообщений: 20008

Пост Пост: #1 от 01-Авг-2013 09:34

[Цитировать]

Жених по объявлению
Страна: Россия
Студия: Россия, кинокомпания СОЛИВС
Жанр: Мелодрама
Год выпуска: 2012
Продолжительность: 01:38:13
Перевод: Не требуется
Cубтитры: нет
Режиссер: Владимир Чубриков
В ролях: Анастасия Заворотнюк, Сергей Астахов, Владимир Стержаков, Сергей Легостаев, Валерий Иваков и другие.
Описание: У молодой женщины было все, о чем только можно мечтать в этой жизни: солидный банковский счет, уважение коллег, свой собственный бизнес, который приносил постоянный доход. Единственное, что беспокоило молодую и успешную женщину - отсутствие спутника жизни. Все попытки наладить свою частную жизнь заканчивались провалом: большинство кандидатов в мужья с интересом смотрели на счет в банке, а вовсе не самой женщиной. Устав от бесконечных знакомств, бизнесвумен хотела забросить все попытки найти суженного, но случай все расставил на свои места. В одной из газет была рубрика знакомств. Пролистывая страницы, женщина наткнулась на одно интересное объявление. Неизвестный поэт обещал посвятить все свое существование своей половинке. Ее сердце дрогнуло, и она согласилась на встречу. Эта встреча изменила не только статус холостяка, но и всю жизнь женщины. Затем была слава, предательство и разочарование. Но это было потом, а вначале - Любовь...
Сэмпл: http://multi-up.com/862382
Доп. информация: Релиз -

Рип чистый. Без посторонних надписей. Выкладывается как есть.
Качество: DVB
Формат: MPG
Видео: MPG2, 720x576 @ 1024x576 (16:9), 25.00fps 5 810 Kbps, 0.560 bit/pixel
Аудио: MPEG Audio, 48000Hz, stereo, 192 Кбит/сек

MI

GeneralComplete name : J:\ВЫКЛАДКА\DVB\04 - КИНО\Жених по объявлению (2012, Мелодрама, DVB) (MYDIMKA).mpgFormat : MPEG-PSFile size : 4.20 GiBDuration : 1h 38mnOverall bit rate mode : VariableOverall bit rate : 6 120 Kbps
VideoID : 224 (0xE0)Format : MPEG VideoFormat version : Version 2Format profile : Main@MainFormat settings, BVOP : YesFormat settings, Matrix : CustomFormat settings, GOP : M=3, N=24Duration : 1h 38mnBit rate mode : VariableBit rate : 5 806 KbpsMaximum bit rate : 15.0 MbpsWidth : 720 pixelsHeight : 576 pixelsDisplay aspect ratio : 16:9Frame rate : 25.000 fpsStandard : PALColor space : YUVChroma subsampling : 4:2:0Bit depth : 8 bitsScan type : InterlacedScan order : Top Field FirstCompression mode : LossyBits/(Pixel*Frame) : 0.560Time code of first frame : 00:00:00:00Time code source : Group of pictures headerStream size : 3.98 GiB (95%)
AudioID : 192 (0xC0)Format : MPEG AudioFormat version : Version 1Format profile : Layer 2Duration : 1h 38mnBit rate mode : ConstantBit rate : 192 KbpsChannel(s) : 2 channelsSampling rate : 48.0 KHzCompression mode : LossyDelay relative to video : 17msStream size : 135 MiB (3%)

Скриншот с названием фильма

Скриншоты

Скачать

Скачать торрент!

Как скачивать? · Что такое торрент? · Рейтинг и ограничения

Сайт не распространяет и не хранит электронные версии произведений, а лишь предоставляет доступ к создаваемому пользователями каталогу ссылок на торрент-файлы, которые содержат только списки хеш-сумм

[Профиль] [ЛС]
Показать сообщения:    
Ответить на тему

Текущее время: Сегодня 16:44

Часовой пояс: GMT + 4



Вы не можете начинать темы
Вы не можете отвечать на сообщения
Вы не можете редактировать свои сообщения
Вы не можете удалять свои сообщения
Вы не можете голосовать в опросах
Вы не можете прикреплять файлы к сообщениям
Вы не можете скачивать файлы