Завтра / Ядерная принцесса (Александр Панкратов) [1992 г., драма, мелодрама, VHSRip]

Ответить на тему
 
Автор Сообщение

user ®

Стаж: 7 лет 7 месяцев

Сообщений: 20008

Пост Пост: #1 от 01-Авг-2013 09:34

[Цитировать]

-Завтра / Ядерная принцесса--Год выпуска: 1992
Жанр: драма, мелодрама
Продолжительность: 01:16:56--Режиссер: Александр Панкратов--В ролях:
Мария Аниканова, Максим Разуваев, Мария Голубкина, Александр Феклистов, Наталья Казначеева, Сергей Барабанщиков, Сергей Апушкин, Антон Соболев
--Описание:
История любви. Любви всепоглощающей, внезапной и безоглядной. Он и Она встречаются взглядами, и все остальное становится мелким и неважным. И пусть весь мир встанет на их пути — они все равно будут вместе! Ведь Ромео и Джульетту нельзя разлучить.
-Доп. информация:-

Дополнительное описание (Внимание!!! Спойлеры сюжета).

Ночной полустанок. Цикады. Из одного поезда на перрон выходит прелестная девушка, из другого - молодой парень. Молодые люди влюбляются друг в друга с первого взгляда. Только десять минут в их распоряжении: поезда стоят по разные стороны платформы, через считанные минуты они неотвратимо тронутся, уйдут в противоположных направлениях. Происходит короткий разговор. Юноша просит у девушки адрес или телефон. Девушка отшучивается:
- Он засекречен! - Поезд трогается, девушка прыгает на подножку тамбура.
- Адрес и телефон! - просит юноша.
- Встретимся здесь, на этом месте, ровно через неделю!
- Что бы ни случилось?
- Что бы ни случилось!
- А ведь вы меня не знаете - я приеду! - кричит вслед парень.
Через неделю эта местность, подобно Чернобылю, становится зоной экологической катастрофы. Население эвакуируют, территорию окружают войска. Но для парня есть только одна возможность найти девушку - это пробраться на полустанок судьбы. В Москве у него есть все: работа, девушка, перспективы. Но он направляется туда, где его обещали ждать, он прорывается через все кордоны, входит в запретную зону, и, как ни удивительно, всё-таки встречает её в условленном месте, на ночном вокзале покинутого людьми города. И они проводят здесь, в радиоактивном раю, несколько дней и ночей, и они забывают обо всем на свете, и венчаются в безлюдном храме безлюдного города, слишком дорого заплатив за свое короткое счастье.
-
Сэмпл Рип совместим с бытовыми DVD-проигрывателями. --Качество видео: VHSRip
Формат видео: AVI
Видео кодек: XviD
Аудио кодек: MP3
Видео: XviD 73; 592x480 (1.23:1); ~1 206 kbps; 25.000 fps; 0.170 bpp
Аудио: MPEG-1 Audio Layer 3; 48.0 KHz; 128 Kbps; CBR; 2 ch-

MediaInfo

General
Complete name : \Savtra_Yadernay_Prinzissa_(1992).VHSRip.XviD.mp3.avi
Format : AVI
Format/Info : Audio Video Interleave
File size : 739 MiB
Duration : 1h 16mn
Overall bit rate : 1 344 Kbps
Movie name : Завтра ( Ядерная принцесса ) (1992) VHSRip
Director : [***]
Writing application : VirtualDubMod 1.5.10.3 | www.virtualdub-fr.org || (build 2550/release)
Video
ID : 0
Format : MPEG-4 Visual
Format profile : Advanced Simple@L5
Format settings, BVOP : 2
Format settings, QPel : No
Format settings, GMC : No warppoints
Format settings, Matrix : Custom
Codec ID : XVID
Codec ID/Hint : XviD
Duration : 1h 16mn
Bit rate : 1 206 Kbps
Width : 592 pixels
Height : 480 pixels
Display aspect ratio : 5:4
Frame rate : 25.000 fps
Color space : YUV
Chroma subsampling : 4:2:0
Bit depth : 8 bits
Scan type : Progressive
Compression mode : Lossy
Bits/(Pixel*Frame) : 0.170
Stream size : 664 MiB (90%)
Writing library : XviD 73
Audio
ID : 1
Format : MPEG Audio
Format version : Version 1
Format profile : Layer 3
Codec ID : 55
Codec ID/Hint : MP3
Duration : 1h 16mn
Bit rate mode : Constant
Bit rate : 128 Kbps
Channel(s) : 2 channels
Sampling rate : 48.0 KHz
Compression mode : Lossy
Stream size : 70.4 MiB (10%)
Alignment : Aligned on interleaves
Interleave, duration : 40 ms (1.00 video frame)
Interleave, preload duration : 504 ms
Writing library : LAME3.99r
Encoding settings : -m s -V 4 -q 0 -lowpass 17 -b 128

Скриншоты


Скачать

Скачать торрент!

Как скачивать? · Что такое торрент? · Рейтинг и ограничения

Сайт не распространяет и не хранит электронные версии произведений, а лишь предоставляет доступ к создаваемому пользователями каталогу ссылок на торрент-файлы, которые содержат только списки хеш-сумм

[Профиль] [ЛС]
Показать сообщения:    
Ответить на тему

Текущее время: Сегодня 20:24

Часовой пояс: GMT + 4



Вы не можете начинать темы
Вы не можете отвечать на сообщения
Вы не можете редактировать свои сообщения
Вы не можете удалять свои сообщения
Вы не можете голосовать в опросах
Вы не можете прикреплять файлы к сообщениям
Вы не можете скачивать файлы