Сценарий / Thirakkatha / Inkaar (Ранджит / Ranjith) [2008, Индия, Драма, DVDRip] Rus Sub

Ответить на тему
 
Автор Сообщение

user ®

Стаж: 12 лет

Сообщений: 15124

Пост Пост: #1 от 29-Июл-2013 01:25

[Цитировать]

Сценарий / Thirakkatha
-Страна: Индия
Жанр: Драма
Год выпуска: 2008
Продолжительность: 02:07:28--Язык: Малаялам
Перевод: Субтитры
Cубтитры: Русские
Перевод и редакция: jyoti--Режиссер: Ранджит / Ranjith-В ролях: Приямани, Притхвирадж, Ануп Менон, Самврутха Сунил, Renjith, Арун, Августин, N.L. Balakrishnan, Byon, Renjith Chengamanad--Описание: Акбар Ахмед (Притвирадж Сукумаран) молод, но уже заработал себе имя самобытного и весьма перспективного режиссера. Однажды он задумывает снять фильм о звезде прошлых лет Малавике (Приямани). Но в ее истории много белых пятен: сумасшедший роман со звездой малаяльского кино Аджаяном Чандраном (Ануп Менон), резкий разрыв. А самое главное – никто не знает, где Малавика сейчас. Поиски закатившейся звезды постепенно приоткрывают завесу тайны над ее прошлым.
Доп. информация: «Сценарий» - это дань уважения сценариста и режиссера фильма Ранджита великим актрисам прошлого, но прежде всего – ныне покойной актрисе Шривидье и ее короткому роману со звездой Юга и Севера Камалом Хасаном. Фильм получил Национальную премию в номинации Лучший художественный фильм на малаяламе, а Приямани удостоилась южной версии награды Filmfare в номинации Лучшая актриса.-- | Кинопоиск--Качество видео: DVDRip
Формат видео: AVI-Видео: XVID, 640x272, 25 fps, 641 Kbps
Аудио: MP3, 44.1 КHz, 2 сh, 128 Kbps
Формат субтитров: hardsub (неотключаемые)
Доп.информация по субтитрам: На видео, кроме русского хардсаба, присутствует английский (см. скриншоты)--Релиз:
Перевод, редакция: jyoti (спасибо!)
Сведение оригинального звука soso4eg-- -
-

Скриншоты:


-

MI

Общее
Полное имя : K:\[Релизы]\DVDRip\Scenariy.2008.DVDRip.XviD.BwTorrents.avi
Формат : AVI
Формат/Информация : Audio Video Interleave
Размер файла : 711 Мбайт
Продолжительность : 2 ч. 7 м.
Общий поток : 780 Кбит/сек
Программа кодирования : VirtualDubMod 1.5.10.3 | www.virtualdub-fr.org || (build 2550/release)
Библиотека кодирования : VirtualDubMod build 2550/release
Видео
Идентификатор : 0
Формат : MPEG-4 Visual
Профиль формата : Advanced Simple@L5
Параметр BVOP формата : 2
Параметр QPel формата : Нет
Параметр GMC формата : Без точки перехода
Параметр матрицы формата : Default (H.263)
Идентификатор кодека : XVID
Идентификатор кодека/Подсказка : XviD
Продолжительность : 2 ч. 7 м.
Битрейт : 642 Кбит/сек
Ширина : 640 пикселей
Высота : 272 пикселя
Соотношение сторон : 2,35:1
Частота кадров : 25,000 кадров/сек
Цветовое пространство : YUV
Субдискретизация насыщенности : 4:2:0
Битовая глубина : 8 бит
Тип развёртки : Прогрессивная
Метод сжатия : С потерями
Бит/(Пиксели*Кадры) : 0.148
Размер потока : 585 Мбайт (82%)
Библиотека кодирования : XviD 1.2.1 (UTC 2008-12-04)
Аудио
Идентификатор : 1
Формат : MPEG Audio
Версия формата : Version 1
Профиль формата : Layer 3
Идентификатор кодека : 55
Идентификатор кодека/Подсказка : MP3
Продолжительность : 2 ч. 7 м.
Вид битрейта : Постоянный
Битрейт : 128 Кбит/сек
Каналы : 2 канала
Частота : 44,1 КГц
Метод сжатия : С потерями
Размер потока : 117 Мбайт (16%)
Выравнивание : Разделение по промежуткам
Продолжительность промежутка : 40 мс. (1,00 видеокадр)
Время предзагрузки промежутка : 500 мс.

-
-
Скачать

Скачать торрент! Сценарий / Thirakkatha / Inkaar (Ранджит / Ranjith) [2008, Индия, Драма, DVDRip] Rus Sub

Как скачивать? · Что такое торрент? · Рейтинг и ограничения

Сайт не распространяет и не хранит электронные версии произведений, а лишь предоставляет доступ к создаваемому пользователями каталогу ссылок на торрент-файлы, которые содержат только списки хеш-сумм

[Профиль] [ЛС]
Показать сообщения:    
Ответить на тему

Текущее время: Сегодня 13:32

Часовой пояс: GMT + 4



Вы не можете начинать темы
Вы не можете отвечать на сообщения
Вы не можете редактировать свои сообщения
Вы не можете удалять свои сообщения
Вы не можете голосовать в опросах
Вы не можете прикреплять файлы к сообщениям
Вы не можете скачивать файлы