Враг мой / Enemy Mine (Вольфганг Петерсен / Wolfgang Petersen) [1985, США, фантастика, боевик, драма, приключения, BDRip 720p] Dub + 2x MVO + AVO + Ukr + Sub Rus, Eng + Original Eng

Ответить на тему
 
Автор Сообщение

user ®

Стаж: 7 лет 7 месяцев

Сообщений: 20008

Пост Пост: #1 от 29-Июл-2013 01:25

[Цитировать]

Враг мой / Enemy Mine
Страна: США
Студия: 20th Century Fox Film Corporation
Жанр: фантастика, боевик, драма, приключения
Год выпуска: 1985
Продолжительность: 01:48:09
Перевод 1: Профессиональный дублированный cо вставками многоголоски
Перевод 2: Профессиональный многоголосый закадровый Киномания
Перевод 3: Профессиональный многоголосый закадровый Двадцатый Век Фокс
Перевод 4: Авторский одноголосый закадровый Ю.Живов
Перевод 5: Профессиональный многоголосый закадровый 2x2
Cубтитры: Russian, English
Оригинальная аудиодорожка: английский
Режиссер: Вольфганг Петерсен / Wolfgang Petersen
В ролях: Деннис Куэйд, Луис Госсет мл., Брайон Джеймс, Ричард Маркус, Кэролин МакКормик, Бампер Робинсон, Джим Мапп, Лэнс Кервин, Скотт Крафт, Лу Майклс, Энди Гир, Генри Столоу
Описание: В глубинах нашей галактики, на огромном расстоянии от Земли люди ведут кровопролитную войну с расой рептилий. Войну, которой Земля отдает последние силы, войну на полное уничтожение. В одной из жестоких схваток в окрестностях гористой планеты в системе двойной звезды пилот Виллис Дэвидж сбивает машину чужого, но тут же получает несколько попаданий и выходит из боя. Единственное место, где можно выжить после падения - та самая планета. Но упав, он обнаруживает, что сбитый им чужой не погиб. Смертельные враги оказываются заперты в одной клетке, и выбор прост - уничтожить друг друга или заключить перемирие и попытаться спастись. Что окажется сильнее: желание жить или ненависть и боль за погибших?
Сэмпл 30 мегабайт дубляж
Сэмпл 230 мегабайт дубляж cо вставками многоголоски
Тип релиза: BDRip 720p
Контейнер: MKV
Видео: 1280X544 / 5256 kbps / 23,976 fps
Аудио 1: Russian: AC3 5.1 / 384kbps Дублированный cо вставками многоголоски
Аудио 2: Russian: AC3 5.1 / 448kbps Многоголосый закадровый Киномания
Аудио 3: Russian: DTS 5.1 / 754 Kbps Многоголосый закадровый Двадцатый Век Фокс
Аудио 4: Russian: DTS 4.0 / 1509 Kbps Авторский одноголосый Ю.Живов DTS Core
Аудио 5: Ukrainian: AC3 2.0 / 192 Kbps Многоголосый закадровый 2+2
Аудио 6: English: DTS 4.0 / 1509 Kbps Оригинальный DTS Core

Доп. информация

Исходником раздачи послужил [url=http://***/forum/viewtopic.php?t=4431996]Враг мой / Enemy Mine (1985) Blu-ray Disc -BLUEBIRD[/url]
Сохранены чаптеры (без названий, с временными метками).
Будьте внимательнее: Ю.Живов и оригинальная дорожка 4.0
Ю.Живов и оригинальная дорожка извлеченное ядро DTS Core
DTS-HD Master Audio 2861 kbps 4.0 / 48 kHz / 2861 kbps / 24-bit English http://yadi.sk/d/PTQkzxYr7JmGM
DTS-HD Master Audio 2879 kbps 4.0 / 48 kHz / 2879 kbps / 24-bit Живов http://yadi.sk/d/Jw-M2uRd7JmQI

MediaInfo

Complete name : Враг мой BDRip 720p.mkv
Format : Matroska
Format version : Version 2
File size : 7.59 GiB
Duration : 1h 48mn
Overall bit rate : 10.1 Mbps
Encoded date : UTC 2013-07-27 14:41:00
Writing application : mkvmerge v5.0.1 ('Es ist Sommer') built on Oct 9 2011 11:55:43
Writing library : libebml v1.2.2 + libmatroska v1.3.0
Video
ID : 1
Format : AVC
Format/Info : Advanced Video Codec
Format profile : High@L4.1
Format settings, CABAC : Yes
Format settings, ReFrames : 9 frames
Codec ID : V_MPEG4/ISO/AVC
Duration : 1h 48mn
Bit rate : 5 256 Kbps
Width : 1 280 pixels
Height : 544 pixels
Display aspect ratio : 2.35:1
Frame rate mode : Constant
Frame rate : 23.976 fps
Color space : YUV
Chroma subsampling : 4:2:0
Bit depth : 8 bits
Scan type : Progressive
Bits/(Pixel*Frame) : 0.315
Stream size : 3.82 GiB (50%)
Writing library : x264 core 133 r2334 a3ac64b
Encoding settings : cabac=1 / ref=9 / deblock=1:-3:-3 / analyse=0x3:0x133 / me=umh / subme=11 / psy=1 / psy_rd=1.00:0.00 / mixed_ref=1 / me_range=32 / chroma_me=1 / trellis=2 / 8x8dct=1 / cqm=0 / deadzone=21,11 / fast_pskip=0 / chroma_qp_offset=-2 / threads=6 / lookahead_threads=1 / sliced_threads=0 / nr=0 / decimate=0 / interlaced=0 / bluray_compat=0 / constrained_intra=0 / bframes=8 / b_pyramid=2 / b_adapt=2 / b_bias=0 / direct=3 / weightb=1 / open_gop=0 / weightp=2 / keyint=240 / keyint_min=22 / scenecut=40 / intra_refresh=0 / rc_lookahead=40 / rc=2pass / mbtree=0 / bitrate=5256 / ratetol=1.0 / qcomp=0.70 / qpmin=0 / qpmax=69 / qpstep=4 / cplxblur=20.0 / qblur=0.5 / vbv_maxrate=62500 / vbv_bufsize=38000 / nal_hrd=none / ip_ratio=1.40 / pb_ratio=1.30 / aq=1:0.80
Language : English
Default : Yes
Forced : No
Audio #1
ID : 2
Format : AC-3
Format/Info : Audio Coding 3
Mode extension : CM (complete main)
Format settings, Endianness : Big
Codec ID : A_AC3
Duration : 1h 48mn
Bit rate mode : Constant
Bit rate : 384 Kbps
Channel(s) : 6 channels
Channel positions : Front: L C R, Side: L R, LFE
Sampling rate : 48.0 KHz
Bit depth : 16 bits
Compression mode : Lossy
Stream size : 297 MiB (4%)
Title : Дубляж
Language : Russian
Default : Yes
Forced : No
Audio #2
ID : 3
Format : AC-3
Format/Info : Audio Coding 3
Mode extension : CM (complete main)
Format settings, Endianness : Big
Codec ID : A_AC3
Duration : 1h 48mn
Bit rate mode : Constant
Bit rate : 448 Kbps
Channel(s) : 6 channels
Channel positions : Front: L C R, Side: L R, LFE
Sampling rate : 48.0 KHz
Bit depth : 16 bits
Compression mode : Lossy
Stream size : 347 MiB (4%)
Title : Многоголосый Киномания
Language : Russian
Default : No
Forced : No
Audio #3
ID : 4
Format : DTS
Format/Info : Digital Theater Systems
Mode : 16
Format settings, Endianness : Big
Codec ID : A_DTS
Duration : 1h 48mn
Bit rate mode : Constant
Bit rate : 755 Kbps
Channel(s) : 6 channels
Channel positions : Front: L C R, Side: L R, LFE
Sampling rate : 48.0 KHz
Bit depth : 24 bits
Compression mode : Lossy
Stream size : 584 MiB (8%)
Title : Многоголосый Двадцатый Век Фокс
Language : Russian
Default : No
Forced : No
Audio #4
ID : 5
Format : DTS
Format/Info : Digital Theater Systems
Mode : 16
Format settings, Endianness : Big
Codec ID : A_DTS
Duration : 1h 48mn
Bit rate mode : Constant
Bit rate : 1 509 Kbps
Channel(s) : 4 channels
Channel positions : Front: L C R, Side: C
Sampling rate : 48.0 KHz
Bit depth : 24 bits
Compression mode : Lossy
Stream size : 1.14 GiB (15%)
Title : Авторский Ю.Живов
Language : Russian
Default : No
Forced : No
Audio #5
ID : 6
Format : AC-3
Format/Info : Audio Coding 3
Mode extension : CM (complete main)
Format settings, Endianness : Big
Codec ID : A_AC3
Duration : 1h 48mn
Bit rate mode : Constant
Bit rate : 192 Kbps
Channel(s) : 2 channels
Channel positions : Front: L R
Sampling rate : 48.0 KHz
Bit depth : 16 bits
Compression mode : Lossy
Stream size : 149 MiB (2%)
Title : Многоголосый 2+2
Language : Ukrainian
Default : No
Forced : No
Audio #6
ID : 7
Format : DTS
Format/Info : Digital Theater Systems
Mode : 16
Format settings, Endianness : Big
Codec ID : A_DTS
Duration : 1h 48mn
Bit rate mode : Constant
Bit rate : 1 509 Kbps
Channel(s) : 4 channels
Channel positions : Front: L C R, Side: C
Sampling rate : 48.0 KHz
Bit depth : 24 bits
Compression mode : Lossy
Stream size : 1.14 GiB (15%)
Title : Оригинал
Language : English
Default : No
Forced : No
Text #1
ID : 8
Format : UTF-8
Codec ID : S_TEXT/UTF8
Codec ID/Info : UTF-8 Plain Text
Title : #1 Киномания
Language : Russian
Default : Yes
Forced : No
Text #2
ID : 9
Format : UTF-8
Codec ID : S_TEXT/UTF8
Codec ID/Info : UTF-8 Plain Text
Title : #2 Ю.Живов
Language : Russian
Default : No
Forced : No
Text #3
ID : 10
Format : UTF-8
Codec ID : S_TEXT/UTF8
Codec ID/Info : UTF-8 Plain Text
Language : English
Default : No
Forced : No
Menu
00:00:00.000 : en:00:00:00.000
00:09:55.595 : en:00:09:55.595
00:20:39.947 : en:00:20:39.947
00:34:47.377 : en:00:34:47.377
00:44:31.836 : en:00:44:31.836
00:49:29.300 : en:00:49:29.300
01:02:58.733 : en:01:02:58.733
01:13:18.477 : en:01:13:18.477
01:17:23.597 : en:01:17:23.597
01:24:56.591 : en:01:24:56.591
01:30:52.322 : en:01:30:52.322
01:43:37.878 : en:01:43:37.878

Скриншоты


Скачать

Скачать торрент!

Как скачивать? · Что такое торрент? · Рейтинг и ограничения

Сайт не распространяет и не хранит электронные версии произведений, а лишь предоставляет доступ к создаваемому пользователями каталогу ссылок на торрент-файлы, которые содержат только списки хеш-сумм

[Профиль] [ЛС]
Показать сообщения:    
Ответить на тему

Текущее время: Сегодня 18:08

Часовой пояс: GMT + 4



Вы не можете начинать темы
Вы не можете отвечать на сообщения
Вы не можете редактировать свои сообщения
Вы не можете удалять свои сообщения
Вы не можете голосовать в опросах
Вы не можете прикреплять файлы к сообщениям
Вы не можете скачивать файлы