Секреты Лос-Анджелеса / L.A. Confidential (Кёртис Хэнсон / Curtis Hanson) [1997, США, триллер, драма, криминал, детектив, BDRip 720p] 3x MVO + 3x DVO + 3x AVO + 3x VO + Original (ENG) + Commentary (ENG) + Subs (4xRUS, 2xENG)

Ответить на тему
 
Автор Сообщение

user ®

Стаж: 7 лет 7 месяцев

Сообщений: 20008

Пост Пост: #1 от 29-Июл-2013 01:25

[Цитировать]

Секреты Лос-Анджелеса / L.A. Confidential
Год выпуска: 1997
Страна: США
Жанр: триллер, драма, криминал, детектив
Продолжительность: 02:17:53
Перевод: многоголосный закадровый, двухголосный закадровый, авторский одноголосный, одноголосный
Cубтитры: русские, английские
Оглавление: 17 глав
Режиссер: Кёртис Хэнсон /Curtis Hanson/
В ролях: Рассел Кроу /Russell Crowe/, Гай Пирс /Guy Pearce/, Кевин Спейси /Kevin Spacey/, Ким Бейсингер /Kim Basinger/, Джеймс Кромуэлл /James Cromwell/, Дэнни ДеВито /Danny DeVito/, Дэвид Стрэтэйрн /David Strathairn/, Рон Рифкин /Ron Rifkin/, Мэтт МакКой /Matt McCoy/, Пол Гилфойл /Paul Guilfoyle/
Описание:
Добро пожаловать в Лос-Анджелес, с его ярким солнцем, широкими манящими пляжами и … процветающей организованной преступностью. Известно даже имя главы преступного мира — Микки Коэн. После ареста босса мафии один за другим в мир иной отправляются его помощники, стремившиеся занять освободившееся место Микки.
В битву с преступниками, естественно, вступает знаменитая полиция Лос-Анджелеса. Двое бесстрашных полицейских, расследующих серию убийств, оказываются соперниками не только на работе, но и в постели проститутки из экзотического борделя.
Дополнительная информация:
IMDB User Rating→: 8.4/10 (278,918 votes)
Рейтинг фильма КиноПоиск.Ru→: 8.127 (27 601 голос)
  • За исходный Remux спасибо Devlad@HDClub;
  • Оцифровка с VHS дорожек: РТР — Fikaloid, ОРТ — SelinaAnt, Лазер Видео — MysticCigarette;
  • За запись со спутника перевода ТВ-3 спасибо small_pipi;
  • Перевод Алексея Матвеева доступен благодаря будулайроманов. Работа со звуком — Perevodman;
  • В переводе Матвеева, а так же в субтитрах №3 и №4 присутствует ненормативная лексика.
Качество: BDRip (исходник: L.A. Confidential 1997 1080p Blu-ray JPN AVC DTS-HD MA 5.1)
Контейнер: MKV
Видеопоток: 1280x534p, 23.976 fps, x264 ~6790 kbps
Аудиопоток №1 (RUS): DD 5.1, 48 kHz, 384 kbps | профессиональный многоголосный закадровый (Гемини-Фильм)
Аудиопоток №2 (RUS): DD 2.0, 48 kHz, 192 kbps | профессиональный многоголосный закадровый (РТР)
Аудиопоток №3 (RUS): DD 2.0, 48 kHz, 192 kbps | профессиональный многоголосный закадровый (ТВ-3)
Аудиопоток №4 (RUS): DD 5.1, 48 kHz, 384 kbps | профессиональный двухголосный закадровый (Twister)
Аудиопоток №5 (RUS): DD 2.0, 48 kHz, 192 kbps | профессиональный двухголосный закадровый (Лазер Видео)
Аудиопоток №6 (RUS): DD 2.0, 48 kHz, 192 kbps | профессиональный двухголосный закадровый (ОРТ)
Аудиопоток №7 (RUS): DD 2.0, 48 kHz, 192 kbps | авторский одноголосный закадровый (Василий Горчаков)
Аудиопоток №8 (RUS): DD 5.1, 48 kHz, 640 kbps | авторский одноголосный закадровый (Андрей Гаврилов)
Аудиопоток №9 (RUS): DD 5.1, 48 kHz, 640 kbps | авторский одноголосный закадровый (Юрий Живов)
Аудиопоток №10 (RUS): DD 2.0, 48 kHz, 192 kbps | одноголосный закадровый (Николай Антонов)
Аудиопоток №11 (RUS): DD 5.1, 48 kHz, 640 kbps | одноголосный закадровый (Алексей Doctor Joker Матвеев)
Аудиопоток №12 (RUS): DD 5.1, 48 kHz, 640 kbps | одноголосный закадровый (Владимир Яковлев (Самарский))
Аудиопоток №13 (ENG): DD 5.1, 48 kHz, 640 kbps
Аудиопоток №14 (ENG): DD 2.0, 48 kHz, 192 kbps | комментарии актёров, сценаристов, оператора, монтажёра и других
Субтитры №1 (RUS): SRT/UTF8 | Гемини-Фильм
Субтитры №2 (RUS): SRT/UTF8 | Twister
Субтитры №3 (RUS): SRT/UTF8 | Алексей Doctor Joker Матвеев
Субтитры №4 (RUS): SRT/UTF8 | Uncle KiLler
Субтитры №5 (ENG): SRT/UTF8
Субтитры №6 (ENG): SRT/UTF8 | SDH
Сэмпл: Яндекс.Диск→, sendspace→

x264 Log

raw [info]: 1280x534p 1:1 @ 24000/1001 fps (cfr)
x264 [info]: using SAR=1/1
x264 [info]: using cpu capabilities: MMX2 SSE2Fast SSSE3 SSE4.2 AVX
x264 [info]: profile High, level 4.1
x264 [info]: frame I:1470  Avg QP:14.54  size:104494
x264 [info]: frame P:35394 Avg QP:15.92  size: 62584
x264 [info]: frame B:161488 Avg QP:18.07  size: 30340
x264 [info]: consecutive B-frames:  1.2%  1.1%  3.8%  9.3% 13.1% 46.8%  8.8%  2.6%  4.0%  3.0%  2.2%  1.1%  1.2%  1.4%  0.3%  0.1%  0.1%
x264 [info]: mb I  I16..4:  1.8% 88.1% 10.1%
x264 [info]: mb P  I16..4:  0.2% 26.2%  1.0%  P16..4: 20.6% 29.7% 19.3%  0.0%  0.0%    skip: 3.1%
x264 [info]: mb B  I16..4:  0.0%  2.8%  0.1%  B16..8: 34.6% 30.7% 10.2%  direct: 9.7%  skip:12.0%  L0:47.2% L1:39.3% BI:13.4%
x264 [info]: 8x8 transform intra:95.3% inter:57.0%
x264 [info]: direct mvs  spatial:100.0% temporal:0.0%
x264 [info]: coded y,uvDC,uvAC intra: 98.2% 95.5% 86.6% inter: 59.0% 44.6% 14.4%
x264 [info]: i16 v,h,dc,p: 44% 11% 12% 32%
x264 [info]: i8 v,h,dc,ddl,ddr,vr,hd,vl,hu: 12%  7% 12% 10% 13% 12% 11% 11% 12%
x264 [info]: i4 v,h,dc,ddl,ddr,vr,hd,vl,hu: 23%  6%  5%  8% 14% 13% 11% 10%  9%
x264 [info]: i8c dc,h,v,p: 55% 16% 15% 14%
x264 [info]: Weighted P-Frames: Y:4.3% UV:2.1%
x264 [info]: ref P L0: 36.6%  8.3% 19.8%  7.9%  7.3%  4.7%  4.8%  2.4%  2.6%  1.9%  2.0%  1.6%  0.1%  0.0%
x264 [info]: ref B L0: 62.8% 14.2%  7.8%  4.3%  3.1%  2.6%  2.1%  1.3%  1.1%  0.6%  0.2%
x264 [info]: ref B L1: 91.0%  9.0%
x264 [info]: kb/s:7028.47

MediaInfo

General
Unique ID                                : 186023936054468067590723019953386233220 (0x8BF2E8296B5425749F968AE96F731D84)
Complete name                            : L.A.Confidential.1997.720p.BDRip.x264.DD.SRT-d0ber.mkv
Format                                   : Matroska
Format version                           : Version 2
File size                                : 11.9 GiB
Duration                                 : 2h 17mn
Overall bit rate                         : 12.3 Mbps
Movie name                               : L.A. Confidential (1997) 720p BDRip by d0ber.maNN
Encoded date                             : UTC 2013-07-28 15:41:46
Writing application                      : mkvmerge v6.1.0 ('Old Devil') built on Mar  2 2013 14:32:37
Writing library                          : libebml v1.3.0 + libmatroska v1.4.0
Video
ID                                       : 1
Format                                   : AVC
Format/Info                              : Advanced Video Codec
Format profile                           : High@L4.1
Format settings, CABAC                   : Yes
Format settings, ReFrames                : 12 frames
Codec ID                                 : V_MPEG4/ISO/AVC
Duration                                 : 2h 17mn
Bit rate                                 : 6 789 Kbps
Width                                    : 1 280 pixels
Height                                   : 534 pixels
Display aspect ratio                     : 2.40:1
Frame rate mode                          : Constant
Frame rate                               : 23.976 fps
Color space                              : YUV
Chroma subsampling                       : 4:2:0
Bit depth                                : 8 bits
Scan type                                : Progressive
Bits/(Pixel*Frame)                       : 0.414
Stream size                              : 6.54 GiB (55%)
Title                                    : 1280x534, 23.976 fps, x264 ~6890 kbps
Writing library                          : x264 core 135 r2345 f0c1c53
Encoding settings                        : cabac=1 / ref=12 / deblock=1:-3:-3 / analyse=0x3:0x113 / me=tesa / subme=11 / psy=1 / psy_rd=0.95:0.00 / mixed_ref=1 / me_range=64 / chroma_me=1 / trellis=2 / 8x8dct=1 / cqm=0 / deadzone=21,11 / fast_pskip=0 / chroma_qp_offset=-2 / threads=6 / lookahead_threads=1 / sliced_threads=0 / nr=0 / decimate=1 / interlaced=0 / bluray_compat=0 / constrained_intra=0 / bframes=16 / b_pyramid=2 / b_adapt=2 / b_bias=0 / direct=3 / weightb=1 / open_gop=0 / weightp=2 / keyint=240 / keyint_min=23 / scenecut=40 / intra_refresh=0 / rc_lookahead=192 / rc=crf / mbtree=0 / crf=16.0 / qcomp=0.80 / qpmin=0 / qpmax=69 / qpstep=4 / vbv_maxrate=50000 / vbv_bufsize=62500 / crf_max=0.0 / nal_hrd=none / ip_ratio=1.40 / pb_ratio=1.30 / aq=1:0.50
Language                                 : English
Default                                  : Yes
Forced                                   : No
Audio #1
ID                                       : 2
Format                                   : AC-3
Format/Info                              : Audio Coding 3
Mode extension                           : CM (complete main)
Format settings, Endianness              : Big
Codec ID                                 : A_AC3
Duration                                 : 2h 17mn
Bit rate mode                            : Constant
Bit rate                                 : 384 Kbps
Channel(s)                               : 6 channels
Channel positions                        : Front: L C R, Side: L R, LFE
Sampling rate                            : 48.0 KHz
Bit depth                                : 16 bits
Compression mode                         : Lossy
Stream size                              : 379 MiB (3%)
Title                                    : RUS MVO Гемини DD 5.1, 48 kHz, 384 kbps
Language                                 : Russian
Default                                  : Yes
Forced                                   : No
Audio #2
ID                                       : 3
Format                                   : AC-3
Format/Info                              : Audio Coding 3
Mode extension                           : CM (complete main)
Format settings, Endianness              : Big
Codec ID                                 : A_AC3
Duration                                 : 2h 17mn
Bit rate mode                            : Constant
Bit rate                                 : 192 Kbps
Channel(s)                               : 2 channels
Channel positions                        : Front: L R
Sampling rate                            : 48.0 KHz
Bit depth                                : 16 bits
Compression mode                         : Lossy
Stream size                              : 189 MiB (2%)
Title                                    : RUS MVO РТР DD 2.0, 48 kHz, 192 kbps
Language                                 : Russian
Default                                  : No
Forced                                   : No
Audio #3
ID                                       : 4
Format                                   : AC-3
Format/Info                              : Audio Coding 3
Mode extension                           : CM (complete main)
Format settings, Endianness              : Big
Codec ID                                 : A_AC3
Duration                                 : 2h 17mn
Bit rate mode                            : Constant
Bit rate                                 : 192 Kbps
Channel(s)                               : 2 channels
Channel positions                        : Front: L R
Sampling rate                            : 48.0 KHz
Bit depth                                : 16 bits
Compression mode                         : Lossy
Stream size                              : 189 MiB (2%)
Title                                    : RUS MVO ТВ-3 DD 2.0, 48 kHz, 192 kbps
Language                                 : Russian
Default                                  : No
Forced                                   : No
Audio #4
ID                                       : 5
Format                                   : AC-3
Format/Info                              : Audio Coding 3
Mode extension                           : CM (complete main)
Format settings, Endianness              : Big
Codec ID                                 : A_AC3
Duration                                 : 2h 17mn
Bit rate mode                            : Constant
Bit rate                                 : 384 Kbps
Channel(s)                               : 6 channels
Channel positions                        : Front: L C R, Side: L R, LFE
Sampling rate                            : 48.0 KHz
Bit depth                                : 16 bits
Compression mode                         : Lossy
Stream size                              : 379 MiB (3%)
Title                                    : RUS DVO Twister DD 5.1, 48 kHz, 384 kbps
Language                                 : Russian
Default                                  : No
Forced                                   : No
Audio #5
ID                                       : 6
Format                                   : AC-3
Format/Info                              : Audio Coding 3
Mode extension                           : CM (complete main)
Format settings, Endianness              : Big
Codec ID                                 : A_AC3
Duration                                 : 2h 17mn
Bit rate mode                            : Constant
Bit rate                                 : 192 Kbps
Channel(s)                               : 2 channels
Channel positions                        : Front: L R
Sampling rate                            : 48.0 KHz
Bit depth                                : 16 bits
Compression mode                         : Lossy
Stream size                              : 189 MiB (2%)
Title                                    : RUS DVO Лазер Видео DD 2.0, 48 kHz, 192 kbps
Language                                 : Russian
Default                                  : No
Forced                                   : No
Audio #6
ID                                       : 7
Format                                   : AC-3
Format/Info                              : Audio Coding 3
Mode extension                           : CM (complete main)
Format settings, Endianness              : Big
Codec ID                                 : A_AC3
Duration                                 : 2h 17mn
Bit rate mode                            : Constant
Bit rate                                 : 192 Kbps
Channel(s)                               : 2 channels
Channel positions                        : Front: L R
Sampling rate                            : 48.0 KHz
Bit depth                                : 16 bits
Compression mode                         : Lossy
Stream size                              : 189 MiB (2%)
Title                                    : RUS DVO ОРТ DD 2.0, 48 kHz, 192 kbps
Language                                 : Russian
Default                                  : No
Forced                                   : No
Audio #7
ID                                       : 8
Format                                   : AC-3
Format/Info                              : Audio Coding 3
Mode extension                           : CM (complete main)
Format settings, Endianness              : Big
Codec ID                                 : A_AC3
Duration                                 : 2h 17mn
Bit rate mode                            : Constant
Bit rate                                 : 192 Kbps
Channel(s)                               : 2 channels
Channel positions                        : Front: L R
Sampling rate                            : 48.0 KHz
Bit depth                                : 16 bits
Compression mode                         : Lossy
Stream size                              : 189 MiB (2%)
Title                                    : RUS AVO В.Горчаков DD 2.0, 48 kHz, 192 kbps
Language                                 : Russian
Default                                  : No
Forced                                   : No
Audio #8
ID                                       : 9
Format                                   : AC-3
Format/Info                              : Audio Coding 3
Mode extension                           : CM (complete main)
Format settings, Endianness              : Big
Codec ID                                 : A_AC3
Duration                                 : 2h 17mn
Bit rate mode                            : Constant
Bit rate                                 : 640 Kbps
Channel(s)                               : 6 channels
Channel positions                        : Front: L C R, Side: L R, LFE
Sampling rate                            : 48.0 KHz
Bit depth                                : 16 bits
Compression mode                         : Lossy
Stream size                              : 631 MiB (5%)
Title                                    : RUS AVO А.Гаврилов DD 5.1, 48 kHz, 640 kbps
Language                                 : Russian
Default                                  : No
Forced                                   : No
Audio #9
ID                                       : 10
Format                                   : AC-3
Format/Info                              : Audio Coding 3
Mode extension                           : CM (complete main)
Format settings, Endianness              : Big
Codec ID                                 : A_AC3
Duration                                 : 2h 17mn
Bit rate mode                            : Constant
Bit rate                                 : 640 Kbps
Channel(s)                               : 6 channels
Channel positions                        : Front: L C R, Side: L R, LFE
Sampling rate                            : 48.0 KHz
Bit depth                                : 16 bits
Compression mode                         : Lossy
Stream size                              : 631 MiB (5%)
Title                                    : RUS AVO Ю.Живов DD 5.1, 48 kHz, 640 kbps
Language                                 : Russian
Default                                  : No
Forced                                   : No
Audio #10
ID                                       : 11
Format                                   : AC-3
Format/Info                              : Audio Coding 3
Mode extension                           : CM (complete main)
Format settings, Endianness              : Big
Codec ID                                 : A_AC3
Duration                                 : 2h 17mn
Bit rate mode                            : Constant
Bit rate                                 : 192 Kbps
Channel(s)                               : 2 channels
Channel positions                        : Front: L R
Sampling rate                            : 48.0 KHz
Bit depth                                : 16 bits
Compression mode                         : Lossy
Stream size                              : 189 MiB (2%)
Title                                    : RUS VO Н.Антонов DD 2.0, 48 kHz, 192 kbps
Language                                 : Russian
Default                                  : No
Forced                                   : No
Audio #11
ID                                       : 12
Format                                   : AC-3
Format/Info                              : Audio Coding 3
Mode extension                           : CM (complete main)
Format settings, Endianness              : Big
Codec ID                                 : A_AC3
Duration                                 : 2h 17mn
Bit rate mode                            : Constant
Bit rate                                 : 640 Kbps
Channel(s)                               : 6 channels
Channel positions                        : Front: L C R, Side: L R, LFE
Sampling rate                            : 48.0 KHz
Bit depth                                : 16 bits
Compression mode                         : Lossy
Stream size                              : 631 MiB (5%)
Title                                    : RUS VO А.Матвеев DD 5.1, 48 kHz, 640 kbps
Language                                 : Russian
Default                                  : No
Forced                                   : No
Audio #12
ID                                       : 13
Format                                   : AC-3
Format/Info                              : Audio Coding 3
Mode extension                           : CM (complete main)
Format settings, Endianness              : Big
Codec ID                                 : A_AC3
Duration                                 : 2h 17mn
Bit rate mode                            : Constant
Bit rate                                 : 640 Kbps
Channel(s)                               : 6 channels
Channel positions                        : Front: L C R, Side: L R, LFE
Sampling rate                            : 48.0 KHz
Bit depth                                : 16 bits
Compression mode                         : Lossy
Stream size                              : 631 MiB (5%)
Title                                    : RUS VO В.Яковлев DD 5.1, 48 kHz, 640 kbps
Language                                 : Russian
Default                                  : No
Forced                                   : No
Audio #13
ID                                       : 14
Format                                   : AC-3
Format/Info                              : Audio Coding 3
Mode extension                           : CM (complete main)
Format settings, Endianness              : Big
Codec ID                                 : A_AC3
Duration                                 : 2h 17mn
Bit rate mode                            : Constant
Bit rate                                 : 640 Kbps
Channel(s)                               : 6 channels
Channel positions                        : Front: L C R, Side: L R, LFE
Sampling rate                            : 48.0 KHz
Bit depth                                : 16 bits
Compression mode                         : Lossy
Stream size                              : 631 MiB (5%)
Title                                    : ENG DD 5.1, 48 kHz, 640 kbps
Language                                 : English
Default                                  : No
Forced                                   : No
Audio #14
ID                                       : 15
Format                                   : AC-3
Format/Info                              : Audio Coding 3
Mode extension                           : CM (complete main)
Format settings, Endianness              : Big
Codec ID                                 : A_AC3
Duration                                 : 2h 17mn
Bit rate mode                            : Constant
Bit rate                                 : 192 Kbps
Channel(s)                               : 2 channels
Channel positions                        : Front: L R
Sampling rate                            : 48.0 KHz
Bit depth                                : 16 bits
Compression mode                         : Lossy
Stream size                              : 189 MiB (2%)
Title                                    : ENG Commentary DD 2.0, 48 kHz, 192 kbps
Language                                 : English
Default                                  : No
Forced                                   : No
Text #1
ID                                       : 16
Format                                   : UTF-8
Codec ID                                 : S_TEXT/UTF8
Codec ID/Info                            : UTF-8 Plain Text
Title                                    : RUS Гемини SRT
Language                                 : Russian
Default                                  : No
Forced                                   : No
Text #2
ID                                       : 17
Format                                   : UTF-8
Codec ID                                 : S_TEXT/UTF8
Codec ID/Info                            : UTF-8 Plain Text
Title                                    : RUS Twister SRT
Language                                 : Russian
Default                                  : No
Forced                                   : No
Text #3
ID                                       : 18
Format                                   : UTF-8
Codec ID                                 : S_TEXT/UTF8
Codec ID/Info                            : UTF-8 Plain Text
Title                                    : RUS А.Матвеев SRT
Language                                 : Russian
Default                                  : No
Forced                                   : No
Text #4
ID                                       : 19
Format                                   : UTF-8
Codec ID                                 : S_TEXT/UTF8
Codec ID/Info                            : UTF-8 Plain Text
Title                                    : RUS Uncle KiLler SRT
Language                                 : Russian
Default                                  : No
Forced                                   : No
Text #5
ID                                       : 20
Format                                   : UTF-8
Codec ID                                 : S_TEXT/UTF8
Codec ID/Info                            : UTF-8 Plain Text
Title                                    : ENG SRT
Language                                 : English
Default                                  : No
Forced                                   : No
Text #6
ID                                       : 21
Format                                   : UTF-8
Codec ID                                 : S_TEXT/UTF8
Codec ID/Info                            : UTF-8 Plain Text
Title                                    : ENG SDH SRT
Language                                 : English
Default                                  : No
Forced                                   : No
Menu
00:00:00.000                             : en:
00:16:20.938                             : en:
00:24:27.549                             : en:
00:30:01.967                             : en:
00:36:45.995                             : en:
00:45:59.632                             : en:
00:56:08.031                             : en:
01:02:27.619                             : en:
01:07:45.645                             : en:
01:14:33.010                             : en:
01:24:27.145                             : en:
01:36:37.291                             : en:
01:40:50.127                             : en:
01:51:31.310                             : en:
01:58:18.800                             : en:
02:07:05.952                             : en:
02:13:01.640                             : en:

Скриншоты


Source vs. Rip


Скачать

Скачать торрент!

Как скачивать? · Что такое торрент? · Рейтинг и ограничения

Сайт не распространяет и не хранит электронные версии произведений, а лишь предоставляет доступ к создаваемому пользователями каталогу ссылок на торрент-файлы, которые содержат только списки хеш-сумм

[Профиль] [ЛС]
Показать сообщения:    
Ответить на тему

Текущее время: Сегодня 17:28

Часовой пояс: GMT + 4



Вы не можете начинать темы
Вы не можете отвечать на сообщения
Вы не можете редактировать свои сообщения
Вы не можете удалять свои сообщения
Вы не можете голосовать в опросах
Вы не можете прикреплять файлы к сообщениям
Вы не можете скачивать файлы