Щедрое сердце / Bade Dil Wala (Бхаппи Сони / Bhappi Sonie) [1983, Индия, Мелодрама, DVDRip] VO

Ответить на тему
 
Автор Сообщение

user ®

Стаж: 12 лет

Сообщений: 15124

Пост Пост: #1 от 28-Июл-2013 19:40

[Цитировать]

Щедрое сердце / Bade Dil Wala -Страна: Индия
Жанр: Мелодрама
Год выпуска: 1983
Продолжительность: 02:23:47-Перевод: Одноголосый закадровый
Cубтитры: нет--Режиссер: Бхаппи Сони / Bhappi Sonie-В ролях: Риши Капур, Тина Муним, Сарика, Пран, Аруна Ирани, Амджад Кхан, Калпана Айер, Мадан Пури, Джагдип, Рупеш Кумар, Бхарат Бхушан--Описание: Молодой певец Амрит оказывается втянутым мошенником Бхагаватом в преступление и вынужден скрываться от правосудия.После железнодорожной катастрофы он попадает в гостеприимный дом Сахиба, где влюбляется в Рашми, младшую дочь Сахиба. Но на пути Амрита к счастливой жизни вновь встает Бхагават, который как ядовитый паук плетет вокруг него свои сети.--IMDb | Кинопоиск--Качество видео: DVDRip
Исходник: DVD9 R1
Формат видео: AVI-Видео: XVID, 576x432, 23.976 fps, 1315 Kbps
Аудио: MP3, 44.1 Hz, 2ch, 128Kbps--Риппер, синхронизация звука: soso4eg-Спасибо veronika83 за DVD9 и a2nton за оцифровку звука =)-- -
-

Скриншот с названием


-

Скриншоты


-

MI

Общее
Полное имя : K:\[Релизы]\DVDRip\Schedroe.Serdce.1983.DVDRip.XviD.soso4eg.avi
Формат : AVI
Формат/Информация : Audio Video Interleave
Размер файла : 1,46 Гбайт
Продолжительность : 2 ч. 23 м.
Общий поток : 1452 Кбит/сек
Название фильма : Schedroe.Serdce.1983.DVDRip.XviD.soso4eg
Программа кодирования : VirtualDubMod 1.5.10.3 | www.virtualdub-fr.org || (build 2550/release)
Видео
Идентификатор : 0
Формат : MPEG-4 Visual
Профиль формата : Advanced Simple@L5
Параметр BVOP формата : 2
Параметр QPel формата : Нет
Параметр GMC формата : Без точки перехода
Параметр матрицы формата : Default (H.263)
Идентификатор кодека : XVID
Идентификатор кодека/Подсказка : XviD
Продолжительность : 2 ч. 23 м.
Битрейт : 1315 Кбит/сек
Ширина : 576 пикселей
Высота : 432 пикселя
Соотношение сторон : 4:3
Частота кадров : 23,976 кадра/сек
Цветовое пространство : YUV
Субдискретизация насыщенности : 4:2:0
Битовая глубина : 8 бит
Тип развёртки : Прогрессивная
Метод сжатия : С потерями
Бит/(Пиксели*Кадры) : 0.220
Размер потока : 1,32 Гбайт (91%)
Библиотека кодирования : XviD 1.2.1 (UTC 2008-12-04)
Аудио
Идентификатор : 1
Формат : MPEG Audio
Версия формата : Version 1
Профиль формата : Layer 3
Идентификатор кодека : 55
Идентификатор кодека/Подсказка : MP3
Продолжительность : 2 ч. 23 м.
Вид битрейта : Постоянный
Битрейт : 128 Кбит/сек
Каналы : 2 канала
Частота : 44,1 КГц
Метод сжатия : С потерями
Размер потока : 132 Мбайт (9%)
Выравнивание : Разделение по промежуткам
Продолжительность промежутка : 42 мс. (1,00 видеокадр)
Время предзагрузки промежутка : 500 мс.

-
-
Скачать

Скачать торрент! Щедрое сердце / Bade Dil Wala (Бхаппи Сони / Bhappi Sonie) [1983, Индия, Мелодрама, DVDRip] VO

Как скачивать? · Что такое торрент? · Рейтинг и ограничения

Сайт не распространяет и не хранит электронные версии произведений, а лишь предоставляет доступ к создаваемому пользователями каталогу ссылок на торрент-файлы, которые содержат только списки хеш-сумм

[Профиль] [ЛС]
Показать сообщения:    
Ответить на тему

Текущее время: Сегодня 22:17

Часовой пояс: GMT + 4



Вы не можете начинать темы
Вы не можете отвечать на сообщения
Вы не можете редактировать свои сообщения
Вы не можете удалять свои сообщения
Вы не можете голосовать в опросах
Вы не можете прикреплять файлы к сообщениям
Вы не можете скачивать файлы