Букет (Андрей Канивченко) [2012, мелодрама, HDTV 1080i]

Ответить на тему
 
Автор Сообщение

user ®

Стаж: 7 лет 7 месяцев

Сообщений: 20008

Пост Пост: #1 от 28-Июл-2013 07:55

[Цитировать]

Букет
Жанр: мелодрама
Год выпуска: 2012
Продолжительность: 01:30:00
Режиссёр: Андрей Канивченко
В ролях: Ольга Котельникова, Анатолий Руденко, Анатолий Котенёв, Любовь Руденко, Елена Дубровская, Олег Ткачев, Оксана Лесная, Дмитрий Мухин, Татьяна Чердынцева, Инна Коляда, Елена Родак-Шкуратова, Дмитрий Калачев, Матвей Шкуратов, Денис Воронцов, Марина Блинова
Описание: Каждая девушка хочет услышать предложение руки и сердца от своего любимого, но только не Таня. Ведь совсем недавно закончилась учеба в школе. Зачем так рано становиться взрослыми? А вдруг за поворотом ее ждет огромное счастье? Во всяком случае, мама считает именно так. И когда на горизонте появляется перспективный жених с дипломатическим будущим, Таня делает выбор в его пользу. Проходят восемнадцать лет Таниной жизни. Дочь Таня воспитывает одна, с работы приходится уйти, и будущее зыбко и туманно. Неизменным в ее жизни остается лишь одно: от Сергея, ее первой любви, на день рождения приходит букет ромашек. Семнадцать лет. Семнадцать букетов. Как важно знать, что кто-то в этом мире так преданно любит тебя. Новый день рождения не приносит с собой очередного букета. И только теперь Таня понимает, как много значил для нее этот букет на день рожденья. Сможет ли Таня вернуть любовь в свою жизнь?..
Доп. информация:
Релиз -
Запись чистая. Без посторонних надписей. Выкладывается, как есть.
Семпл: http://multi-up.com/851208
Качество видео: HDTV 1080i
Формат видео: MPEG-TS
Видео: AVC, 1920x1080 (16:9), 25 fps, 7853 Kbps, 0.151 bit/pixel
Аудио: MPEG Audio, 48 kHz, stereo, 192 Kbps

MediaInfo

GeneralID : 1 (0x1)Complete name : Букет (2012, Мелодрама, HDTV) (MYDIMKA).tsFormat : MPEG-TSFile size : 5.41 GiBDuration : 1h 31mnOverall bit rate mode : VariableOverall bit rate : 8 449 Kbps
VideoID : 2911 (0xB5F)Menu ID : 1 (0x1)Format : AVCFormat/Info : Advanced Video CodecFormat profile : High@L4.0Format settings, CABAC : YesFormat settings, ReFrames : 3 framesCodec ID : 27Duration : 1h 31mnBit rate : 7 838 KbpsWidth : 1 920 pixelsHeight : 1 080 pixelsDisplay aspect ratio : 16:9Frame rate : 25.000 fpsColor space : YUVChroma subsampling : 4:2:0Bit depth : 8 bitsScan type : MBAFFBits/(Pixel*Frame) : 0.151Stream size : 5.02 GiB (93%)
AudioID : 2912 (0xB60)Menu ID : 1 (0x1)Format : MPEG AudioFormat version : Version 1Format profile : Layer 2Codec ID : 3Duration : 1h 31mnBit rate mode : ConstantBit rate : 192 KbpsChannel(s) : 2 channelsSampling rate : 48.0 KHzCompression mode : LossyStream size : 126 MiB (2%)Language : Russian

Скриншот c названием фильма

Скриншоты

Скачать

Скачать торрент!

Как скачивать? · Что такое торрент? · Рейтинг и ограничения

Сайт не распространяет и не хранит электронные версии произведений, а лишь предоставляет доступ к создаваемому пользователями каталогу ссылок на торрент-файлы, которые содержат только списки хеш-сумм

[Профиль] [ЛС]
Показать сообщения:    
Ответить на тему

Текущее время: Сегодня 12:50

Часовой пояс: GMT + 4



Вы не можете начинать темы
Вы не можете отвечать на сообщения
Вы не можете редактировать свои сообщения
Вы не можете удалять свои сообщения
Вы не можете голосовать в опросах
Вы не можете прикреплять файлы к сообщениям
Вы не можете скачивать файлы