Место под соснами / The Place Beyond the Pines (Дерек Сиенфрэнс / Derek Cianfrance) [2012, США, драма, криминал, BDRip 720p] [US Transfer] Dub + Original Eng + Sub (Rus, Eng)

Ответить на тему
 
Автор Сообщение

user ®

Стаж: 7 лет 7 месяцев

Сообщений: 20008

Пост Пост: #1 от 28-Июл-2013 02:45

[Цитировать]

Место под соснами / The Place Beyond the Pines«Месть в наследство» Год выпуска: 2012
Страна: США
Жанр: драма, криминал
Продолжительность: 02:20:30.422
Перевод: Профессиональный (дублированный) Rus Blu-ray
Оригинальная аудиодорожка: Английская
Субтитры: Русские, английские
Студия: Sidney Kimmel Entertainment, Electric City Entertainment, Verisimilitude
Режиссёр: Дерек Сиенфрэнс / Derek Cianfrance
В ролях: Райан Гослинг / Ryan Gosling (Luke), Ева Мендес / Eva Mendes (Romina), Брэдли Купер / Bradley Cooper (Avery), Рэй Лиотта / Ray Liotta (Deluca), Дэйн ДеХаан / Dane DeHaan (в титрах: Dane Dehaan) (Jason), Эмори Коэн / Emory Cohen (AJ), Бен Мендельсон / Ben Mendelsohn (Robin), Роуз Бирн / Rose Byrne (Jennifer), Махершалалхашбаз Али / Mahershalalhashbaz Ali (Kofi), Харрис Юлин / Harris Yulin (Al Cross), Брюс Гринвуд / Bruce Greenwood (Bill Killcullen), Крэйг Ван Хук / Craig Van Hook (Jack) и др.
Описание: Мотокаскадёр Люк Глэнтон совершает турне из одной провинции в другую, показывая свои каскадёрские навыки и зарабатывая этим на жизнь. По окончании одного из своих выступлений он встречает свою бывшую девушку - Рамину, вскоре узнав, что у неё от него годовалый сын - Джейсон. Решив обеспечивать сына он бросает свою работу каскадёра, однако Рамина против того, чтобы Люк был в жизни её сына, поскольку она сама вовлечена в отношения с Кофи. Тем не менее, Люк остаётся в городе и устраивается на работу к механику Робину, но вскоре понимает, что заработанных денег не хватает для обеспечения семьи. Робин предлагает ему ограбить банк…
Качество: BDRip 720p (HDWinG)
Контейнер: MKV
Видео кодек: MPEG-4 AVC Video
Аудио кодек: DTS Audio / Dolby Digital Audio
Видео: MPEG-4 AVC Video / 6289 kbps / 1280x534p / 23,976 fps / 2.40:1 / 0.384 bit/pix / High@L4.1
Аудио 1: Русский / DTS Audio / 5.1 / 48 kHz / 1536 kbps / 16-bit / Dub Rus Blu-ray
Аудио 2: English / DTS Audio / 5.1 / 48 kHz / 1536 kbps / 24-bit / Оригинал
Аудио 3: English / Dolby Digital Audio / 2.0 / 48 kHz / 192 kbps / 16-bit / Commentary w/ co-writter/director Derek Cianfrance
Навигация по главам: да

Скриншот с названием фильма

MediaInfo

C:\***\Место под соснами (The Place Beyond the Pines) 2012, США, драма, криминал, US Transfer BDRip 720p GORESEWAGE.mkv
General
Unique ID : 187679043434447889444768068004082571365 (0x8D31AB4183F0E45FBA0CE63C5CBF5865)
Complete name : C:\***\Место под соснами (The Place Beyond the Pines) 2012, США, драма, криминал, US Transfer BDRip 720p GORESEWAGE.mkv
Format : Matroska
Format version : Version 4 / Version 2
File size : 9.31 GiB
Duration : 2h 20mn
Overall bit rate : 9 488 Kbps
Movie name : GORESEWAGE
Encoded date : UTC 2013-07-27 21:27:06
Writing application : mkvmerge v6.1.0 ('Old Devil') built on Mar 31 2013 15:21:18
Writing library : libebml v1.3.0 + libmatroska v1.4.0
Video #1
ID : 1
Format : AVC
Format/Info : Advanced Video Codec
Format profile : High@L4.1
Format settings, CABAC : Yes
Format settings, ReFrames : 12 frames
Codec ID : V_MPEG4/ISO/AVC
Duration : 2h 20mn
Bit rate : 6 289 Kbps
Width : 1 280 pixels
Height : 534 pixels
Display aspect ratio : 2.40:1
Frame rate mode : Constant
Frame rate : 23.976 fps
Color space : YUV
Chroma subsampling : 4:2:0
Bit depth : 8 bits
Scan type : Progressive
Bits/(Pixel*Frame) : 0.384
Stream size : 5.97 GiB (64%)
Title : GORESEWAGE
Writing library : x264 core 128 r2216 198a7ea
Encoding settings : cabac=1 / ref=12 / deblock=1:-3:-3 / analyse=0x3:0x133 / me=umh / subme=11 / psy=1 / psy_rd=1.00:0.00 / mixed_ref=1 / me_range=32 / chroma_me=1 / trellis=2 / 8x8dct=1 / cqm=0 / deadzone=21,11 / fast_pskip=1 / chroma_qp_offset=-2 / threads=12 / lookahead_threads=2 / sliced_threads=0 / nr=0 / decimate=0 / interlaced=0 / bluray_compat=0 / constrained_intra=0 / bframes=7 / b_pyramid=2 / b_adapt=2 / b_bias=0 / direct=3 / weightb=1 / open_gop=0 / weightp=2 / keyint=250 / keyint_min=23 / scenecut=40 / intra_refresh=0 / rc_lookahead=80 / rc=2pass / mbtree=1 / bitrate=6289 / ratetol=1.0 / qcomp=0.60 / qpmin=0 / qpmax=69 / qpstep=4 / cplxblur=20.0 / qblur=0.5 / vbv_maxrate=30000 / vbv_bufsize=30000 / nal_hrd=none / ip_ratio=1.20 / aq=1:1.00
Language : English
Default : Yes
Forced : No
Audio #2
ID : 2
Format : DTS
Format/Info : Digital Theater Systems
Codec ID : A_DTS
Duration : 2h 20mn
Bit rate mode : Constant
Bit rate : 1 510 Kbps
Channel(s) : 6 channels
Channel positions : Front: L C R, Side: L R, LFE
Sampling rate : 48.0 KHz
Bit depth : 16 bits
Compression mode : Lossy
Stream size : 1.48 GiB (16%)
Title : Профессиональный (дублированный) Rus Blu-ray
Language : Russian
Default : Yes
Forced : No
Audio #3
ID : 3
Format : DTS
Format/Info : Digital Theater Systems
Codec ID : A_DTS
Duration : 2h 20mn
Bit rate mode : Constant
Bit rate : 1 510 Kbps
Channel(s) : 6 channels
Channel positions : Front: L C R, Side: L R, LFE
Sampling rate : 48.0 KHz
Bit depth : 24 bits
Compression mode : Lossy
Stream size : 1.48 GiB (16%)
Title : Оригинал
Language : English
Default : No
Forced : No
Audio #4
ID : 4
Format : AC-3
Format/Info : Audio Coding 3
Format profile : Dolby Digital
Mode extension : CM (complete main)
Format settings, Endianness : Big
Codec ID : A_AC3
Duration : 2h 20mn
Bit rate mode : Constant
Bit rate : 192 Kbps
Channel(s) : 2 channels
Channel positions : Front: L R
Sampling rate : 48.0 KHz
Bit depth : 16 bits
Compression mode : Lossy
Stream size : 193 MiB (2%)
Title : Commentary w/ co-writter/director Derek Cianfrance
Language : English
Default : No
Forced : No
Text #5
ID : 5
Format : UTF-8
Codec ID : S_TEXT/UTF8
Codec ID/Info : UTF-8 Plain Text
Language : Russian
Default : No
Forced : No
Text #6
ID : 6
Format : UTF-8
Codec ID : S_TEXT/UTF8
Codec ID/Info : UTF-8 Plain Text
Language : English
Default : No
Forced : No
Menu
00:00:00.000 : en:00:00:00.000
00:07:16.895 : en:00:07:16.895
00:15:56.080 : en:00:15:56.080
00:21:35.211 : en:00:21:35.211
00:29:41.363 : en:00:29:41.363
00:37:56.399 : en:00:37:56.399
00:44:18.239 : en:00:44:18.239
00:52:05.873 : en:00:52:05.873
01:02:18.485 : en:01:02:18.485
01:11:22.320 : en:01:11:22.320
01:17:31.897 : en:01:17:31.897
01:26:23.387 : en:01:26:23.387
01:31:48.628 : en:01:31:48.628
01:36:01.547 : en:01:36:01.547
01:41:10.189 : en:01:41:10.189
01:47:22.227 : en:01:47:22.227
01:57:08.688 : en:01:57:08.688
02:03:59.849 : en:02:03:59.849
02:10:48.507 : en:02:10:48.507
02:16:31.809 : en:02:16:31.809

Полноразмерный постер

Скачать

Скачать торрент!

Как скачивать? · Что такое торрент? · Рейтинг и ограничения

Сайт не распространяет и не хранит электронные версии произведений, а лишь предоставляет доступ к создаваемому пользователями каталогу ссылок на торрент-файлы, которые содержат только списки хеш-сумм

[Профиль] [ЛС]
Показать сообщения:    
Ответить на тему

Текущее время: Сегодня 14:10

Часовой пояс: GMT + 4



Вы не можете начинать темы
Вы не можете отвечать на сообщения
Вы не можете редактировать свои сообщения
Вы не можете удалять свои сообщения
Вы не можете голосовать в опросах
Вы не можете прикреплять файлы к сообщениям
Вы не можете скачивать файлы