Виолет и Дейзи / Violet & Daisy (Джеффри Флетчер / Geoffrey Fletcher) [2013, США, боевик, триллер, драма, комедия, криминал, DVDRip] Dub лицензия

Ответить на тему
 
Автор Сообщение

user ®

Стаж: 7 лет 7 месяцев

Сообщений: 20008

Пост Пост: #1 от 27-Июл-2013 20:25

[Цитировать]

Виолет и Дейзи / Violet & Daisy
«Too much sugar can kill you.»
- -Страна: США
Жанр: боевик, триллер, драма, комедия, криминал
Год выпуска: 2013
Продолжительность: 01:24:32-Перевод: Профессиональный (дублированный) лицензия
Cубтитры: нет
Режиссер: Джеффри Флетчер / Geoffrey Fletcher-В ролях: Сирша Ронан, Алексис Бледел, Джеймс Гандольфини, Марианн Жан-Баптист, Дэнни Трехо, Татьяна Маслани, Джон Вентимилья, Стю «Ладж» Райли, Невилл Арчамбо, Кристофер Джон Гомбос...-Описание: Две подружки — Фиалка и Маргаритка — плевать хотели на всякие там законы и правила. Если они чего-нибудь хотят, то обязательно это получат, даже если ради этого придется кого-нибудь убить. Кстати, именно такой способ заработать кажется девчонкам довольно простым — но до поры до времени…-Доп. информация: - -Качество видео: DVDRip
Формат видео: AVI
Видео: 720x400 (16:9), 25.000 fps, XViD ~ 2074 kbps avg, 0.288 bit/pixel
Аудио: 48 kHz, АС3 6 ch, 384 kbps, русский

MediaInfo

Violet.i.Deyzi.2013.P.DVDRip_[Youtracker]_by_avproh.avi
Формат : AVI
Формат/Информация : Audio Video Interleave
Размер файла : 1,46 Гбайт
Продолжительность : 1 ч. 24 м.
Общий поток : 2467 Кбит/сек
Программа кодирования : VirtualDubMod 1.5.10.3 | www.virtualdub-fr.org || (build 2550/release)
Библиотека кодирования : VirtualDubMod build 2550/release
Видео
Идентификатор : 0
Формат : MPEG-4 Visual
Профиль формата : Advanced Simple@L5
Параметр BVOP формата : 1
Параметр QPel формата : Нет
Параметр GMC формата : Без точки перехода
Параметр матрицы формата : Выборочная
Идентификатор кодека : XVID
Идентификатор кодека/Подсказка : XviD
Продолжительность : 1 ч. 24 м.
Битрейт : 2074 Кбит/сек
Ширина : 720 пикселей
Высота : 400 пикселей
Соотношение сторон : 16:9
Частота кадров : 25,000 кадров/сек
Цветовое пространство : YUV
Субдискретизация насыщенности : 4:2:0
Битовая глубина : 8 бит
Тип развёртки : Прогрессивная
Метод сжатия : С потерями
Бит/(Пиксели*Кадры) : 0.288
Размер потока : 1,22 Гбайт (84%)
Библиотека кодирования : XviD 65
Аудио
Идентификатор : 1
Формат : AC-3
Формат/Информация : Audio Coding 3
Расширение режима : CM (complete main)
Параметр Endianness формата : Big
Идентификатор кодека : 2000
Продолжительность : 1 ч. 24 м.
Вид битрейта : Постоянный
Битрейт : 384 Кбит/сек
Каналы : 6 каналов
Расположение каналов : Front: L C R, Side: L R, LFE
Частота : 48,0 КГц
Битовая глубина : 16 бит
Метод сжатия : С потерями
Размер потока : 232 Мбайт (16%)
Выравнивание : Разделение по промежуткам
Продолжительность промежутка : 40 мс. (1,00 видеокадр)
Время предзагрузки промежутка : 500 мс.

Скриншот c названием фильма

Скриншоты

Скачать

Скачать торрент!

Как скачивать? · Что такое торрент? · Рейтинг и ограничения

Сайт не распространяет и не хранит электронные версии произведений, а лишь предоставляет доступ к создаваемому пользователями каталогу ссылок на торрент-файлы, которые содержат только списки хеш-сумм

[Профиль] [ЛС]
Показать сообщения:    
Ответить на тему

Текущее время: Сегодня 08:12

Часовой пояс: GMT + 4



Вы не можете начинать темы
Вы не можете отвечать на сообщения
Вы не можете редактировать свои сообщения
Вы не можете удалять свои сообщения
Вы не можете голосовать в опросах
Вы не можете прикреплять файлы к сообщениям
Вы не можете скачивать файлы