Виолет и Дейзи / Violet & Daisy (Джеффри Флетчер / Geoffrey Fletcher) [2013, США, боевик, триллер, драма, комедия, криминал, DVDRip] Dub

Ответить на тему
 
Автор Сообщение

user ®

Стаж: 7 лет 7 месяцев

Сообщений: 20008

Пост Пост: #1 от 27-Июл-2013 14:05

[Цитировать]

Виолет и Дейзи / Violet & Daisy
Страна: США
Жанр: боевик, триллер, драма, комедия, криминал
Слоган: «Too much sugar can kill you.»
Год выпуска: 2013
Продолжительность: 01:24:31
Перевод: Профессиональный (дублированный)
Cубтитры: нет
Оригинальная аудиодорожка: нет-Режиссер: Джеффри Флетчер / Geoffrey Fletcher
В ролях: Сирша Ронан, Алексис Бледел, Джеймс Гандольфини, Марианн Жан-Баптист, Дэнни Трехо, Татьяна Маслани, Джон Вентимилья, Стю «Ладж» Райли, Невилл Арчамбо, Кристофер Джон Гомбос-Описание: Две подружки — Фиалка и Маргаритка — плевать хотели на всякие там законы и правила. Если они чего-нибудь хотят, то обязательно это получат, даже если ради этого придется кого-нибудь убить. Кстати, именно такой способ заработать кажется девчонкам довольно простым — но до поры до времени…-Доп. информация:
премьера (мир) 15 сентября 2011
премьера (РФ) 27 июня 2013

-Качество видео: DVDRip
Формат видео: AVI
Видео: XviD, 720x400 (16:9), 25.000 fps, ~ 1095 kbps avg, 0.152 bit/pixel
Аудио: MP3, 48 kHz, 2 ch, 128 kbps

MediaInfo

Общее
Полное имя : E:\Violet.i.Deyzi.2013.P.DVDRip.745MB.avi
Формат : AVI
Формат/Информация : Audio Video Interleave
Размер файла : 745 Мбайт
Продолжительность : 1 ч. 24 м.
Общий поток : 1232 Кбит/сек
Программа кодирования : VirtualDubModRus 1.5.10.2 (build 2542/release)
Библиотека кодирования : VirtualDubMod build 2542/release
Видео
Идентификатор : 0
Формат : MPEG-4 Visual
Профиль формата : Advanced Simple@L5
Параметр BVOP формата : 1
Параметр QPel формата : Нет
Параметр GMC формата : Без точки перехода
Параметр матрицы формата : Выборочная
Идентификатор кодека : XVID
Идентификатор кодека/Подсказка : XviD
Продолжительность : 1 ч. 24 м.
Битрейт : 1095 Кбит/сек
Ширина : 720 пикселей
Высота : 400 пикселей
Соотношение сторон : 16:9
Частота кадров : 25,000 кадров/сек
Цветовое пространство : YUV
Субдискретизация насыщенности : 4:2:0
Битовая глубина : 8 бит
Тип развёртки : Прогрессивная
Метод сжатия : С потерями
Бит/(Пиксели*Кадры) : 0.152
Размер потока : 662 Мбайт (89%)
Библиотека кодирования : XviD 65
Аудио
Идентификатор : 1
Формат : MPEG Audio
Версия формата : Version 1
Профиль формата : Layer 3
Режим : Joint stereo
Расширение режима : MS Stereo
Идентификатор кодека : 55
Идентификатор кодека/Подсказка : MP3
Продолжительность : 1 ч. 24 м.
Вид битрейта : Постоянный
Битрейт : 128 Кбит/сек
Каналы : 2 канала
Частота : 48,0 КГц
Метод сжатия : С потерями
Размер потока : 77,4 Мбайт (10%)
Выравнивание : Соединение по промежуткам
Продолжительность промежутка : 40 мс. (1,00 видеокадр)
Время предзагрузки промежутка : 504 мс.

Скриншоты

Скачать

Скачать торрент!

Как скачивать? · Что такое торрент? · Рейтинг и ограничения

Сайт не распространяет и не хранит электронные версии произведений, а лишь предоставляет доступ к создаваемому пользователями каталогу ссылок на торрент-файлы, которые содержат только списки хеш-сумм

[Профиль] [ЛС]
Показать сообщения:    
Ответить на тему

Текущее время: Сегодня 00:08

Часовой пояс: GMT + 4



Вы не можете начинать темы
Вы не можете отвечать на сообщения
Вы не можете редактировать свои сообщения
Вы не можете удалять свои сообщения
Вы не можете голосовать в опросах
Вы не можете прикреплять файлы к сообщениям
Вы не можете скачивать файлы