Задиристая девчонка / Джаккалан / Jukkalan / This Girl is Badass / This Girl Is Bad-Ass!! / Jak Ka Ran (Петчтай Вонгкамлао / Petchtai Wongkamlao) [2011 г., Таиланд, боевик, комедия, криминал, боевые искусства, BDRip] VO (Виктор Береговых)

Ответить на тему
 
Автор Сообщение

user ®

Стаж: 11 лет

Сообщений: 15151

Пост Пост: #1 от 25-Июл-2013 21:00

[Цитировать]

Задиристая девчонка / Джаккалан / Jukkalan / This Girl is Badass / This Girl Is Bad-Ass!! / Jak Ka Ran
Год выпуска: 2011
Страна: Таиланд
Производство: Baa-Ram-Ewe
Жанр: боевик, комедия, криминал, боевые искусства
Продолжительность: 01:34:14
Перевод: одноголосый, закадровый Виктор Береговых (jet)
Режиссер: Петчтай Вонгкамлао / Petchtai Wongkamlao
В ролях: Йанин Висмитананда, Петчтай Вонгкамлао, Аком Придакул, Баврибун Чанруанг, Чалерм Ямчаманг, Анек Интаян, Удом Сонгсаенг, Чукит Ауимсук, Сирипорн Эямсук, Стит Аморнведж, Падунг Сонгсанг...
Описание: Джаккалан (Йанин Висмитананда) работает курьером. Она доставляет наркотики на велосипеде. Конечно же она не прочь немного подзаработать на стороне, но вот Боссы мафии не согласны с такой постановкой дела.
Автор релиза:
Качество видео: BDRip [BD Remux]
Формат файла: AVI
Видео: 720x384, 25.000 fps, MPEG-4 Visual, 2084 kbps
Аудио: 48 kHz, MP3, 2 ch, 128 kbps [Виктор Береговых (jet)]

MediaInfo

General
Format : AVI
Format/Info : Audio Video Interleave
File size : 1.46 GiB
Duration : 1h 34mn
Overall bit rate : 2 221 Kbps
Writing application : VirtualDubMod 1.5.10.3 (build 2550/release)
Writing library : VirtualDubMod build 2550/release
Video
ID : 0
Format : MPEG-4 Visual
Format profile : Advanced Simple@L5
Format settings, BVOP : 2
Format settings, QPel : No
Format settings, GMC : No warppoints
Format settings, Matrix : Default (MPEG)
Codec ID : XVID
Codec ID/Hint : XviD
Duration : 1h 34mn
Bit rate : 2 084 Kbps
Width : 720 pixels
Height : 384 pixels
Display aspect ratio : 1.85:1
Frame rate : 25.000 fps
Color space : YUV
Chroma subsampling : 4:2:0
Bit depth : 8 bits
Scan type : Progressive
Compression mode : Lossy
Bits/(Pixel*Frame) : 0.301
Stream size : 1.37 GiB (94%)
Writing library : XviD 1.2.1 (UTC 2008-12-04)
Audio
ID : 1
Format : MPEG Audio
Format version : Version 1
Format profile : Layer 3
Mode : Joint stereo
Codec ID : 55
Codec ID/Hint : MP3
Duration : 1h 34mn
Bit rate mode : Constant
Bit rate : 128 Kbps
Channel(s) : 2 channels
Sampling rate : 48.0 KHz
Compression mode : Lossy
Stream size : 86.3 MiB (6%)
Alignment : Aligned on interleaves
Interleave, duration : 40 ms (1.00 video frame)
Interleave, preload duration : 504 ms

Обложки DVD

Скриншот c названием фильма

Скриншоты

Скачать

Скачать торрент! Задиристая девчонка / Джаккалан / Jukkalan / This Girl is Badass / This Girl Is Bad-Ass!! / Jak Ka Ran (Петчтай Вонгкамлао / Petchtai Wongkamlao) [2011 г., Таиланд, боевик, комедия, криминал, боевые искусства, BDRip] VO (Виктор Береговых)

Как скачивать? · Что такое торрент? · Рейтинг и ограничения

Сайт не распространяет и не хранит электронные версии произведений, а лишь предоставляет доступ к создаваемому пользователями каталогу ссылок на торрент-файлы, которые содержат только списки хеш-сумм

[Профиль] [ЛС]
Показать сообщения:    
Ответить на тему

Текущее время: Сегодня 18:58

Часовой пояс: GMT + 4



Вы не можете начинать темы
Вы не можете отвечать на сообщения
Вы не можете редактировать свои сообщения
Вы не можете удалять свои сообщения
Вы не можете голосовать в опросах
Вы не можете прикреплять файлы к сообщениям
Вы не можете скачивать файлы