Восхождение на Фудзияму (Болотбек Шамшиев) [1988, Драма, VHS]

Ответить на тему
 
Автор Сообщение

user ®

Стаж: 7 лет 7 месяцев

Сообщений: 20008

Пост Пост: #1 от 24-Июл-2013 22:50

[Цитировать]

Восхождение на Фудзияму
Жанр: Драма
Год выпуска: 1988
Продолжительность: 01:56:34
Язык: киргизский
Перевод: Русские субтитры (хардсаб)
Режиссёр: Болотбек Шамшиев
Сценарий: Чингиз Айтматов, Калтай Мухамеджанов, Б. Шамшиев
В ролях: Сабира Кумушалиева, Айтурган Темирова, Гульсара Ажибекова, Лидия Каденова, Муканбек Токтобаев, Орозбек Кутманалиев, Раимбек Сейтметов, Кудайберген Султанбаев, Алиман Джангорозова, Акылбек Мураталиев
Описание: По мотивам одноименной пьесы Ч. Айтматова и К. Мухамеджанова.
Пятеро друзей — Мамбет, Досберген, Иосиф, Исабек и Сабыл — вместе учились в школе. Вместе ушли на фронт, вместе воевали. Но, когда Сабыл написал поэму, не соответствующую канонам официальной идеологии, кто-то из друзей предал его, и Сабыл оказался за решеткой. Теперь он реабилитирован. Но, выйдя из тюрьмы и не почувствовав дружеской поддержки, спился. Однажды его бывшие друзья вместе с женами и старой учительницей собрались отметить майские праздники на горе Каркульной. Разговоры друзей о предательстве и преступном умалчивании потрясли старую учительницу. Застолье вскоре перешло в пьяный разгул. Зло, совершенное много лет назад, привело к новым человеческим жертвам…
Сэмпл: http://multi-up.com/887747
Качество видео: VHSRip
Формат видео: VOB
Видео: MPEG Video, 720 x 576 (1.333), 25.000 fps, 4 414 Kbps
Аудио: AC3, 2 channels, 48.0 KHz, 256 Kbps

MediaInfo

General
Format : MPEG-PS
File size : 1 024 MiB
Duration : 30mn 2s
Overall bit rate : 4 764 Kbps
Video
ID : 224 (0xE0)
Format : MPEG Video
Format version : Version 2
Format profile : Main@Main
Format settings, BVOP : Yes
Format settings, Matrix : Default
Format settings, GOP : M=3, N=13
Duration : 30mn 2s
Bit rate mode : Variable
Bit rate : 4 414 Kbps
Nominal bit rate : 8 944 Kbps
Width : 720 pixels
Height : 576 pixels
Display aspect ratio : 4:3
Frame rate : 25.000 fps
Standard : PAL
Color space : YUV
Chroma subsampling : 4:2:0
Bit depth : 8 bits
Scan type : Progressive
Bits/(Pixel*Frame) : 0.426
Stream size : 949 MiB (93%)
Audio
ID : 128 (0x80)
Format : AC-3
Format/Info : Audio Coding 3
Mode extension : CM (complete main)
Duration : 30mn 2s
Bit rate mode : Constant
Bit rate : 256 Kbps
Channel(s) : 2 channels
Channel positions : Front: L R
Sampling rate : 48.0 KHz
Bit depth : 16 bits
Video delay : 40ms
Stream size : 55.0 MiB (5%)

Скриншот c названием фильма

Скриншоты

Скачать

Скачать торрент!

Как скачивать? · Что такое торрент? · Рейтинг и ограничения

Сайт не распространяет и не хранит электронные версии произведений, а лишь предоставляет доступ к создаваемому пользователями каталогу ссылок на торрент-файлы, которые содержат только списки хеш-сумм

[Профиль] [ЛС]
Показать сообщения:    
Ответить на тему

Текущее время: Сегодня 18:04

Часовой пояс: GMT + 4



Вы не можете начинать темы
Вы не можете отвечать на сообщения
Вы не можете редактировать свои сообщения
Вы не можете удалять свои сообщения
Вы не можете голосовать в опросах
Вы не можете прикреплять файлы к сообщениям
Вы не можете скачивать файлы