Опасная страсть / Dangerous Ishhq (Викрам Бхатт / Vikram Bhatt) [2012, Индия, Триллер, мелодрама, DVDRip] DVO (selena & datynet)

Ответить на тему
 
Автор Сообщение

user ®

Стаж: 12 лет

Сообщений: 15124

Пост Пост: #1 от 23-Июл-2013 22:47

[Цитировать]

Опасная страсть / Dangerous Ishhq
Страна: Индия
Жанр: Триллер, мелодрама
Год выпуска: 2012
Продолжительность: 02:08:34
Перевод: Любительский (двухголосый закадровый) selena & datynet (текст - Алла Свирид)
Cубтитры: нет
Режиссер: Викрам Бхатт / Vikram Bhatt
В ролях: Каришма Капур, Раджниш Дуггал, Джимми Шергилл, Дивья Датта, Грейси Сингх, Рави Кишан, Арья Баббар, Руслаан Мумтаз
Описание: А все начиналось так хорошо… Сын известного бизнесмена Рохан (Раджниш) и супермодель Санджана (Каришма) любят друг друга и собираются пожениться. Санджана получает заманчивое предложение — год работать в Париже. Уже по пути в аэропорт ее вдруг охватывает тревожное предчувствие, и она, бросив все, возвращается к любимому. Но в, казалось бы, счастливой истории происходит неожиданный поворот: Рохана похищают и требуют за него огромный выкуп. У Санджаны появляются видения из прошлой жизни, которые, похоже, имеют прямое отношение к настоящему. Возможно, в прошлом она сможет найти ключи к тому, что произошло с ее возлюбленным?..
Качество видео: DVDRip
Формат видео: AVI
Видео: Xvid 640x272 23.98fps 781Kbps
Аудио: MPEG Audio Layer 3 44100Hz stereo 256Kbps
Сэмпл

MediaInfo

General
Полное имя : D:\Opasnaya.Strasty.2012.avi
Формат : AVI
Формат/Информация : Audio Video Interleave
Размер файла : 963 MiB
Продолжительность : 2h 8mn
Общий поток : 1 047 Kbps
Библиотека кодирования : VirtualDub build 34753/release
Video
Идентификатор : 0
Формат : MPEG-4 Visual
Профиль формата : Advanced Simple@L5
Параметр BVOP формата : 2
Параметр QPel формата : Yes
Параметр GMC формата : 3 warppoints
Параметр матрицы формата : Default (H.263)
Идентификатор кодека : XVID
Идентификатор кодека/Подсказка : XviD
Продолжительность : 2h 8mn
Битрейт : 781 Kbps
Ширина : 640 pixels
Высота : 272 pixels
Соотношение сторон : 2.35:1
Частота кадров : 23.976 fps
Цветовое пространство : YUV
Субдискретизация насыщенности : 4:2:0
Битовая глубина : 8 bits
Тип развёртки : Progressive
Метод сжатия : Lossy
Бит/(Пиксели*Кадры) : 0.187
Размер потока : 719 MiB (75%)
Библиотека кодирования : XviD 1.2.1 (UTC 2008-12-04)
Audio
Идентификатор : 1
Формат : MPEG Audio
Версия формата : Version 1
Профиль формата : Layer 3
Идентификатор кодека : 55
Идентификатор кодека/Подсказка : MP3
Продолжительность : 2h 8mn
Вид битрейта : Constant
Битрейт : 256 Kbps
Каналы : 2 channels
Частота : 44.1 KHz
Метод сжатия : Lossy
Размер потока : 235 MiB (24%)
Выравнивание : Split accross interleaves
Продолжительность промежутка : 42 ms (1.00 video frame)
Время предзагрузки промежутка : 500 ms

Скриншот c названием фильма

Скриншоты

Скачать

Скачать торрент! Опасная страсть / Dangerous Ishhq (Викрам Бхатт / Vikram Bhatt) [2012, Индия, Триллер, мелодрама, DVDRip] DVO (selena & datynet)

Как скачивать? · Что такое торрент? · Рейтинг и ограничения

Сайт не распространяет и не хранит электронные версии произведений, а лишь предоставляет доступ к создаваемому пользователями каталогу ссылок на торрент-файлы, которые содержат только списки хеш-сумм

[Профиль] [ЛС]
Показать сообщения:    
Ответить на тему

Текущее время: Сегодня 13:46

Часовой пояс: GMT + 4



Вы не можете начинать темы
Вы не можете отвечать на сообщения
Вы не можете редактировать свои сообщения
Вы не можете удалять свои сообщения
Вы не можете голосовать в опросах
Вы не можете прикреплять файлы к сообщениям
Вы не можете скачивать файлы