Родной человек (Игорь Штернберг) [2013, Россия, Мелодрама, HDTV 1080i]

Ответить на тему
 
Автор Сообщение

user ®

Стаж: 7 лет 7 месяцев

Сообщений: 20008

Пост Пост: #1 от 23-Июл-2013 22:47

[Цитировать]

Родной человек
Страна: Россия
Жанр: Мелодрама
Год выпуска: 2013
Продолжительность: 01:30:32
Cубтитры: нет
Режиссер: Игорь Штернберг
В ролях: Александра Афанасьева-Шевчук, Дмитрий Ратомский, Анатолий Котенёв, Максим Кречетов, Святослав Астрамович, Татьяна Бовкалова, Елена Дубровская, Тамара Миронова, Светлана Никифорова, Вероника Пляшкевич, Даниил Радевич, Олег Ткачев, Рита Удовенко, Матвей Шкуратов и другие.
Описание: Порой случайное знакомство меняет всю прожитую жизнь. Алла и Коля были влюблены друг в друга с босоногого деревенского детства. В знак своей любви они даже, как взрослые, "обручились" - обменялись колечками. Шло время. Их любовь только крепла, несмотря на недоброжелательство Колиной родни. Казалось, их счастью уже ничто не может помешать. Но однажды Алла познакомилась с Игорем. И безобидный выезд за город резко изменил всю их дальнейшую жизнь...
Сэмпл: http://multi-up.com/854662
Тип релиза: HDTV 1080i
Контейнер: TS
Релиз -

Запись чистая. Без посторонних надписей. Выкладывается, как есть.
Качество видео: HDTV 1080i
Формат видео: TS
Видео: AVC, 1920x1080 (16:9), 25 fps, 7853 Kbps, 0.151 bit/pixel
Аудио: MPEG Audio, 48 kHz, stereo, 192 Kbps

MediaInfo

GeneralID : 1 (0x1)Complete name : J:\ВЫКЛАДКА\HDTV\Фильмы\Родной человек (2012, Мелодрама, HDTV) (MYDIMKA).tsFormat : MPEG-TSFile size : 5.34 GiBDuration : 1h 30mnOverall bit rate mode : VariableOverall bit rate : 8 446 Kbps
VideoID : 2911 (0xB5F)Menu ID : 1 (0x1)Format : AVCFormat/Info : Advanced Video CodecFormat profile : High@L4.0Format settings, CABAC : YesFormat settings, ReFrames : 3 framesCodec ID : 27Duration : 1h 30mnBit rate : 7 835 KbpsWidth : 1 920 pixelsHeight : 1 080 pixelsDisplay aspect ratio : 16:9Frame rate : 25.000 fpsColor space : YUVChroma subsampling : 4:2:0Bit depth : 8 bitsScan type : MBAFFBits/(Pixel*Frame) : 0.151Stream size : 4.96 GiB (93%)
AudioID : 2912 (0xB60)Menu ID : 1 (0x1)Format : MPEG AudioFormat version : Version 1Format profile : Layer 2Codec ID : 3Duration : 1h 30mnBit rate mode : ConstantBit rate : 192 KbpsChannel(s) : 2 channelsSampling rate : 48.0 KHzCompression mode : LossyStream size : 124 MiB (2%)Language : Russian

Скриншот c названием фильма

Скриншоты


Скачать

Скачать торрент!

Как скачивать? · Что такое торрент? · Рейтинг и ограничения

Сайт не распространяет и не хранит электронные версии произведений, а лишь предоставляет доступ к создаваемому пользователями каталогу ссылок на торрент-файлы, которые содержат только списки хеш-сумм

[Профиль] [ЛС]
Показать сообщения:    
Ответить на тему

Текущее время: Сегодня 18:05

Часовой пояс: GMT + 4



Вы не можете начинать темы
Вы не можете отвечать на сообщения
Вы не можете редактировать свои сообщения
Вы не можете удалять свои сообщения
Вы не можете голосовать в опросах
Вы не можете прикреплять файлы к сообщениям
Вы не можете скачивать файлы