Жених по объявлению (Владимир Чубриков) [2012, Россия, Мелодрама, HDTV 1080i]

Ответить на тему
 
Автор Сообщение

user ®

Стаж: 7 лет 7 месяцев

Сообщений: 20008

Пост Пост: #1 от 23-Июл-2013 22:46

[Цитировать]

Жених по объявлению
Страна: Россия
Студия: Россия, кинокомпания СОЛИВС
Жанр: Мелодрама
Год выпуска: 2012
Продолжительность: 01:38:01
Перевод: Не требуется
Cубтитры: Есть (Русский язык, телетекст)
Режиссер: Владимир Чубриков
В ролях: Анастасия Заворотнюк, Сергей Астахов, Владимир Стержаков, Сергей Легостаев, Валерий Иваков и другие.
Описание: Павел Словцов - филолог, преподаватель, поэт - переживает тяжелый кризис: от него ушла жена, он перестал писать, у него финансовые проблемы из-за кредита вследствие чего он даже начал пить. В какой-то момент Павел понимает, что надо что-то в жизни решительно поменять, иначе все может закончиться плачевно. Именно поэтому он решает откликнуться на объявление в газете, в котором некая состоятельная женщина по имени Вера из далекого Ханты-Мансийска ищет для высокооплачиваемой работы образованного мужчину средних лет. …
Сэмпл: http://multi-up.com/862388
Тип релиза: HDTV 1080i
Контейнер: TS
Доп. информация: Релиз -

Рип чистый. Без посторонних надписей. Выкладывается как есть.
Видео кодек: AVC
Аудио кодек: MP2
Видео: 1920x1080 (16:9) 25.000 fps 7 853 Kbps, 0.151 bit/pixel
Аудио: MPEG Audio 48000Hz stereo 192 Кбит/сек

Скриншоты


Скриншоты с субтитрами

Скриншот с названием фильма

MI

GeneralID : 1 (0x1)Complete name : J:\ВЫКЛАДКА\HDTV\Фильмы\Жених по объявлению (2012, Мелодрама, HDTV) (MYDIMKA).tsFormat : MPEG-TSFile size : 5.80 GiBDuration : 1h 38mnOverall bit rate mode : VariableOverall bit rate : 8 471 Kbps
VideoID : 2931 (0xB73)Menu ID : 1 (0x1)Format : AVCFormat/Info : Advanced Video CodecFormat profile : High@L4.0Format settings, CABAC : YesFormat settings, ReFrames : 3 framesCodec ID : 27Duration : 1h 38mnBit rate : 7 859 KbpsWidth : 1 920 pixelsHeight : 1 080 pixelsDisplay aspect ratio : 16:9Frame rate : 25.000 fpsColor space : YUVChroma subsampling : 4:2:0Bit depth : 8 bitsScan type : MBAFFBits/(Pixel*Frame) : 0.152Stream size : 5.38 GiB (93%)
AudioID : 2932 (0xB74)Menu ID : 1 (0x1)Format : MPEG AudioFormat version : Version 1Format profile : Layer 2Codec ID : 3Duration : 1h 38mnBit rate mode : ConstantBit rate : 192 KbpsChannel(s) : 2 channelsSampling rate : 48.0 KHzCompression mode : LossyStream size : 135 MiB (2%)Language : Russian
TextID : 2934 (0xB76)-888Menu ID : 1 (0x1)Format : Teletext SubtitleLanguage : Russian
MenuID : 2930 (0xB72)Menu ID : 1 (0x1)Duration : 1h 38mnList : 2931 (0xB73) (AVC) / 2932 (0xB74) (MPEG Audio, Russian) / 2934 (0xB76) ()Language : / Russian
Скачать

Скачать торрент!

Как скачивать? · Что такое торрент? · Рейтинг и ограничения

Сайт не распространяет и не хранит электронные версии произведений, а лишь предоставляет доступ к создаваемому пользователями каталогу ссылок на торрент-файлы, которые содержат только списки хеш-сумм

[Профиль] [ЛС]
Показать сообщения:    
Ответить на тему

Текущее время: Сегодня 00:11

Часовой пояс: GMT + 4



Вы не можете начинать темы
Вы не можете отвечать на сообщения
Вы не можете редактировать свои сообщения
Вы не можете удалять свои сообщения
Вы не можете голосовать в опросах
Вы не можете прикреплять файлы к сообщениям
Вы не можете скачивать файлы