Страшно, аж жуть / Spooky Spooky / Gui meng jiao (Саммо Хун / Sammo Hung) [1988, Гонконг, мистика, триллер, комедия, DVDRip] VO (Jet)

Ответить на тему
 
Автор Сообщение

user ®

Стаж: 11 лет

Сообщений: 15151

Пост Пост: #1 от 23-Июл-2013 18:10

[Цитировать]

Страшно, аж жуть / Spooky Spooky / Gui meng jiao
Страна: Гонконг
Жанр: мистика, триллер, комедия
Год выпуска: 1988
Продолжительность: 01:35:00-Перевод: Виктор Береговых (Jet)
Переводчик: Rainmaker
Тайминг: Message of death
Редактура: sinner
Рип: Public Enemy (((
Субтитры:китайские, английские (вшитые)
Оригинальная аудиодорожка: нет-Режиссер: Саммо Хун / Sammo Hung-В ролях: Джойс Мина Годенци, Альфред Чеун, Ричард Нг, Энтони Чан, Билли Лау, Марс, Кори Юэнь, У Ма, Юэнь Ва, Чун Фат, Тина Лау-Описание: В небольшую деревню на окраине Гонконга прибывает молодой полицейский инспектор Ван Сяу Мин (Альфред Чеун). Он был уверен, что здесь его ждет тихая спокойная жизнь без каких-либо происшествий, но буквально на следующее утро море выносит на берег труп девушки. А вскоре выясняется, что та не просто утонула – в прибрежных водах живет зомби, утаскивающий зазевавшихся жертв в глубины.-Релиз групп - -Качество видео: DVDRip (DVD5)
Формат видео: AVI
Видео: XviD, 720x400 (1.80:1), 25 fps, 1995 kbps avg. 0.28 bit/pixel
Аудио : Русский MPEG layer 3, 192 kbps
-

MediaInfo

Format : AVI
Format/Info : Audio Video Interleave
File size : 1.46 GiB
Duration : 1h 35mn
Overall bit rate : 2 197 Kbps
Writing application : VirtualDubMod 1.5.10.3 | www.virtualdub-fr.org || (build 2550/release)
Writing library : VirtualDubMod build 2550/release
Video
ID : 0
Format : MPEG-4 Visual
Format profile : Advanced Simple@L5
Format settings, BVOP : 1
Format settings, QPel : No
Format settings, GMC : No warppoints
Format settings, Matrix : Custom
Codec ID : XVID
Codec ID/Hint : XviD
Duration : 1h 35mn
Bit rate : 1 996 Kbps
Width : 720 pixels
Height : 400 pixels
Display aspect ratio : 16:9
Frame rate : 25.000 fps
Color space : YUV
Chroma subsampling : 4:2:0
Bit depth : 8 bits
Scan type : Progressive
Compression mode : Lossy
Bits/(Pixel*Frame) : 0.277
Stream size : 1.32 GiB (91%)
Writing library : XviD 73
Audio
ID : 1
Format : MPEG Audio
Format version : Version 1
Format profile : Layer 3
Codec ID : 55
Codec ID/Hint : MP3
Duration : 1h 35mn
Bit rate mode : Constant
Bit rate : 192 Kbps
Channel(s) : 2 channels
Sampling rate : 48.0 KHz
Compression mode : Lossy
Stream size : 130 MiB (9%)
Alignment : Aligned on interleaves
Interleave, duration : 40 ms (1.00 video frame)
Interleave, preload duration : 504 ms

Скриншот с названием

Скриншоты

Скачать

Скачать торрент! Страшно, аж жуть / Spooky Spooky / Gui meng jiao (Саммо Хун / Sammo Hung) [1988, Гонконг, мистика, триллер, комедия, DVDRip] VO (Jet)

Как скачивать? · Что такое торрент? · Рейтинг и ограничения

Сайт не распространяет и не хранит электронные версии произведений, а лишь предоставляет доступ к создаваемому пользователями каталогу ссылок на торрент-файлы, которые содержат только списки хеш-сумм

[Профиль] [ЛС]
Показать сообщения:    
Ответить на тему

Текущее время: Сегодня 20:05

Часовой пояс: GMT + 4



Вы не можете начинать темы
Вы не можете отвечать на сообщения
Вы не можете редактировать свои сообщения
Вы не можете удалять свои сообщения
Вы не можете голосовать в опросах
Вы не можете прикреплять файлы к сообщениям
Вы не можете скачивать файлы