Пентхаус с видом на север / Penthouse North (Джозеф Рубин / Joseph Ruben) [2013, США, Триллер, HDRip] VO + Original (Eng)

Ответить на тему
 
Автор Сообщение

user ®

Стаж: 7 лет 7 месяцев

Сообщений: 20008

Пост Пост: #1 от 23-Июл-2013 11:50

[Цитировать]

Пентхаус с видом на север / Penthouse North- Год выпуска: 2013
Выпущено: США / Lionsgate Productions Ltd., Demarest Films
Жанр: триллер
Продолжительность: 01:25:37
Перевод: Одноголосый закадровый + Оригинальная дорожка
Cубтитры: нет-Режиссер:
Джозеф Рубин / Joseph Ruben-В ролях:
Мишель Монахэн, Майкл Китон, Бэрри Слоун, Каньехтио Хорн, Эндрю В. Уолкер, Оливье Супернант, Тимоти Пол Кодерр, Тревор Хэйес, Жасмин Чан, Намукаса Басудде-Описание:
После трагического происшествия девушка-фотокорреспондент слепнет. Злая на весь мир, она отгораживается от внешнего мира, закрывшись в нью-йоркском пентхаусе. Её единственная отрада — молодой человек, который хоть как-то помогает ей не пасть духом. И вот однажды в квартиру врывается преступник-садист, ищущий спрятанные ценности. Героине приходится преодолевать боль и страх перед внешним миром, чтобы выжить…-IMDB | КиноПоиск | Сэмпл |-Качество: HDRip [Penthouse.North.2013.1080p.BluRay.x264-SEiGHT]
Формат: AVI
Видео: 704x384 (1.83:1), 23.976 fps, XviD build 73 ~1973 kbps avg, 0.30 bit/pixel
Аудио #1: 48 kHz, AC3 Dolby Digital, 2/0 (L,R) ch, ~224.00 kbps avg (VO)
Аудио #2: 48 kHz, AC3 Dolby Digital, 2/0 (L,R) ch, ~224.00 kbps avg (ENG)
-

Скриншоты

MediaInfo

General
Complete name                            : D:\Penthouse_North_2013_HDRip_by_Dalemake.avi
Format                                   : AVI
Format/Info                              : Audio Video Interleave
File size                                : 1.46 GiB
Duration                                 : 1h 25mn
Overall bit rate                         : 2 436 Kbps
Writing application                      : VirtualDubMod 1.5.10.3 | www.virtualdub-fr.org || (build 2550/release)
Writing library                          : VirtualDubMod build 2550/release
Video
ID                                       : 0
Format                                   : MPEG-4 Visual
Format profile                           : Advanced Simple@L5
Format settings, BVOP                    : 1
Format settings, QPel                    : No
Format settings, GMC                     : No warppoints
Format settings, Matrix                  : Custom
Codec ID                                 : XVID
Codec ID/Hint                            : XviD
Duration                                 : 1h 25mn
Bit rate                                 : 1 974 Kbps
Width                                    : 704 pixels
Height                                   : 384 pixels
Display aspect ratio                     : 1.85:1
Frame rate                               : 23.976 fps
Color space                              : YUV
Chroma subsampling                       : 4:2:0
Bit depth                                : 8 bits
Scan type                                : Progressive
Compression mode                         : Lossy
Bits/(Pixel*Frame)                       : 0.304
Stream size                              : 1.18 GiB (81%)
Writing library                          : XviD 73
Audio #1
ID                                       : 1
Format                                   : AC-3
Format/Info                              : Audio Coding 3
Mode extension                           : CM (complete main)
Format settings, Endianness              : Big
Codec ID                                 : 2000
Duration                                 : 1h 25mn
Bit rate mode                            : Constant
Bit rate                                 : 224 Kbps
Channel(s)                               : 2 channels
Channel positions                        : Front: L R
Sampling rate                            : 48.0 KHz
Bit depth                                : 16 bits
Compression mode                         : Lossy
Stream size                              : 137 MiB (9%)
Alignment                                : Split accross interleaves
Interleave, duration                     : 42 ms (1.00 video frame)
Interleave, preload duration             : 500 ms
Audio #2
ID                                       : 2
Format                                   : AC-3
Format/Info                              : Audio Coding 3
Mode extension                           : CM (complete main)
Format settings, Endianness              : Big
Codec ID                                 : 2000
Duration                                 : 1h 25mn
Bit rate mode                            : Constant
Bit rate                                 : 224 Kbps
Channel(s)                               : 2 channels
Channel positions                        : Front: L R
Sampling rate                            : 48.0 KHz
Bit depth                                : 16 bits
Compression mode                         : Lossy
Stream size                              : 137 MiB (9%)
Alignment                                : Split accross interleaves
Interleave, duration                     : 42 ms (1.00 video frame)
Interleave, preload duration             : 500 ms
-
Скачать

Скачать торрент!

Как скачивать? · Что такое торрент? · Рейтинг и ограничения

Сайт не распространяет и не хранит электронные версии произведений, а лишь предоставляет доступ к создаваемому пользователями каталогу ссылок на торрент-файлы, которые содержат только списки хеш-сумм

[Профиль] [ЛС]
Показать сообщения:    
Ответить на тему

Текущее время: Сегодня 22:34

Часовой пояс: GMT + 4



Вы не можете начинать темы
Вы не можете отвечать на сообщения
Вы не можете редактировать свои сообщения
Вы не можете удалять свои сообщения
Вы не можете голосовать в опросах
Вы не можете прикреплять файлы к сообщениям
Вы не можете скачивать файлы