Власть / Power (Сидни Люмет / Sidney Lumet) [1986, США, драма, WEB-DL 1080p] DVO (Первый канал) + AVO (Михалев) + Original Eng

Ответить на тему
 
Автор Сообщение

user ®

Стаж: 7 лет 7 месяцев

Сообщений: 20008

Пост Пост: #1 от 22-Июл-2013 12:20

[Цитировать]

Власть / Power Страна: США
Студия: Lorimar Productions, Polar Entertainment
Жанр: драма
Год выпуска: 1986
Продолжительность: 01:50:49
Перевод 1: Профессиональный (двухголосый закадровый) Первый канал
Перевод 2: Авторский (одноголосый закадровый) Алексей Михалев
Cубтитры: нет
Оригинальная аудиодорожка: английский
Режиссер: Сидни Люмет / Sidney Lumet
В ролях: Ричард Гир, Джули Кристи, Джин Хэкмен, Кейт Кэпшоу, Дензел Вашингтон, Э. Г. Маршалл, Беатрис Стрэйт
Фриц Уивер, Майкл Лернд, Дж.Т. Уолш
Описание: В этом расследовании политических и финансовых махинаций в сфере большого бизнеса Ричард Гир исполняет роль крутого газетного магната, работающего на политиков.
Он и его наставник доказывают, что люди голосуют отнюдь не потому, что делают сознательный выбор, а потому, что идут на поводу у политиков.

Качество видео: WEB-DL 1080p
Контейнер: MKV
Видео кодек: H264
Аудио кодек: AC3
Видео: 1906x1076 (1.77:1), 23.976 fps, ~4949 kbps avg, 0.101 bit/pixel
Аудио 1: 48 kHz, AC3 Dolby Digital, 2/0 (L,R) ch, ~192 kbps - Первый канал
Аудио 2: 48 kHz, AC3 Dolby Digital, 2/0 (L,R) ch, ~192 kbps - Михалев
Аудио 3: 48 kHz, AC3 Dolby Digital, 2/0 (L,R) ch, ~192 kbps - Оригинал

Доп.инфо

в дороге Первого канала отсутствует перевод первых 14-ти минут вместо него авторский (Михалев)

MediaInfo

Complete name : Vlast'.1986.WEBDL1080p.mkv
Format : Matroska
Format version : Version 2
File size : 4.36 GiB
Duration : 1h 50mn
Overall bit rate : 5 638 Kbps
Encoded date : UTC 2013-07-16 19:05:03
Writing application : mkvmerge v4.0.0 ('The Stars were mine') сборка от Jun 6 2010 16:18:42
Writing library : libebml v1.0.0 + libmatroska v1.0.0
Video
ID : 1
Format : AVC
Format/Info : Advanced Video Codec
Format profile : High@L4.0
Format settings, CABAC : Yes
Format settings, ReFrames : 4 frames
Format settings, GOP : N=2
Codec ID : V_MPEG4/ISO/AVC
Duration : 1h 50mn
Bit rate : 4 949 Kbps
Width : 1 906 pixels
Height : 1 076 pixels
Display aspect ratio : 16:9
Frame rate mode : Constant
Frame rate : 23.976 fps
Color space : YUV
Chroma subsampling : 4:2:0
Bit depth : 8 bits
Scan type : Progressive
Bits/(Pixel*Frame) : 0.101
Stream size : 3.83 GiB (88%)
Language : English
Default : No
Forced : No
Color primaries : BT.709
Transfer characteristics : BT.709
Matrix coefficients : BT.709
Audio #1
ID : 2
Format : AC-3
Format/Info : Audio Coding 3
Mode extension : CM (complete main)
Format settings, Endianness : Big
Codec ID : A_AC3
Duration : 1h 50mn
Bit rate mode : Constant
Bit rate : 192 Kbps
Channel(s) : 2 channels
Channel positions : Front: L R
Sampling rate : 48.0 KHz
Bit depth : 16 bits
Compression mode : Lossy
Stream size : 152 MiB (3%)
Title : Pervyj kanal
Language : Russian
Default : Yes
Forced : No
Audio #2
ID : 3
Format : AC-3
Format/Info : Audio Coding 3
Mode extension : CM (complete main)
Format settings, Endianness : Big
Codec ID : A_AC3
Duration : 1h 50mn
Bit rate mode : Constant
Bit rate : 192 Kbps
Channel(s) : 2 channels
Channel positions : Front: L R
Sampling rate : 48.0 KHz
Bit depth : 16 bits
Compression mode : Lossy
Stream size : 152 MiB (3%)
Title : Mihalev
Language : Russian
Default : No
Forced : No
Audio #3
ID : 4
Format : AC-3
Format/Info : Audio Coding 3
Mode extension : CM (complete main)
Format settings, Endianness : Big
Codec ID : A_AC3
Duration : 1h 50mn
Bit rate mode : Constant
Bit rate : 192 Kbps
Channel(s) : 2 channels
Channel positions : Front: L R
Sampling rate : 48.0 KHz
Bit depth : 16 bits
Compression mode : Lossy
Stream size : 152 MiB (3%)
Language : English
Default : No
Forced : No
Menu
00:00:00.000 : en:Credits With A Beat (sing, Sing, Sing).
00:02:24.000 : en:Crisis On Camera.
00:05:30.000 : en:Details.
00:07:26.000 : en:St. John's Job.
00:12:21.000 : en:Loyal Only To Money.
00:15:34.000 : en:Hastings' News.
00:20:49.000 : en:Old Acquaintances.
00:25:59.000 : en:Current And Wannabe Governors.
00:30:34.000 : en:Exaggerating?
00:32:29.000 : en:Jerome Cade.
00:37:23.000 : en:Searching.
00:43:52.000 : en:Horsing Around.
00:47:58.000 : en:Caught In The Printer.
00:51:34.000 : en:Taking License.
00:54:00.000 : en:Wired.
00:57:30.000 : en:Concerned Questions.
01:03:33.000 : en:Close Encounter.
01:09:18.000 : en:His Every Move.
01:11:59.000 : en:Now More Than Ever.
01:16:25.000 : en:Deplaned.
01:18:47.000 : en:Favor For A Friend.
01:24:30.000 : en:The Monster.
01:28:46.000 : en:"elect Cade And Get Paid."
01:31:30.000 : en:"prove Me Wrong."
01:36:59.000 : en:Thinking Past November.
01:40:33.000 : en:Election Night.
01:44:04.000 : en:Something Human.
01:46:19.000 : en:Tools Of The Trade (the Stars And Stripes Forever).
01:48:08.000 : en:End Credits (sing, Sing, Sing).

Скриншоты

Скачать

Скачать торрент!

Как скачивать? · Что такое торрент? · Рейтинг и ограничения

Сайт не распространяет и не хранит электронные версии произведений, а лишь предоставляет доступ к создаваемому пользователями каталогу ссылок на торрент-файлы, которые содержат только списки хеш-сумм

[Профиль] [ЛС]
Показать сообщения:    
Ответить на тему

Текущее время: Сегодня 16:12

Часовой пояс: GMT + 4



Вы не можете начинать темы
Вы не можете отвечать на сообщения
Вы не можете редактировать свои сообщения
Вы не можете удалять свои сообщения
Вы не можете голосовать в опросах
Вы не можете прикреплять файлы к сообщениям
Вы не можете скачивать файлы