Орден / The Cloth (Джастин Прайс / Justin Price) [2013, США, ужасы, фантастика, фэнтези, триллер, приключения, WEB-DL 720p] DVO ("Пираты") + Original Eng + Sub Eng

Ответить на тему
 
Автор Сообщение

user ®

Стаж: 7 лет 7 месяцев

Сообщений: 20008

Пост Пост: #1 от 22-Июл-2013 12:20

[Цитировать]

Орден / The Cloth «The Battle for Your Soul, has Begun!» Год выпуска: 2013
Страна: США
Жанр: ужасы, фантастика, фэнтези, триллер, приключения
Продолжительность: 01:29:23
Перевод: Любительский (двухголосый закадровый) "Пираты"
Оригинальная аудиодорожка: Английская
Субтитры: Английские (SDH)
Студия: Eminence Productions, Cloth Film
Режиссёр: Джастин Прайс / Justin Price
В ролях: Дэнни Трехо, Эрик Робертс, Рэйчел Брук Смит, Джастин Прайс, Роберт Миано, Ласситер Холмс, Кайлер Виллетт, Камерон Уайт, Стивен Брэнд, Перла Родригез и др.
Описание: Со времен краха Римской Империи церковь продолжала распространять христианство. Вере в Христа всегда противостояли мощные силы, для борьбы с которыми была основана секретная организация «Экзорцистиато». В ее недрах много веков назад и был создан Тайный Орден, именуемый «Покров». Орден продолжает действовать и в наши дни. С помощью проверенных веками обрядов экзорцизма его адепты противостоят демонам, пытающимся забрать души грешников сквозь приоткрывающиеся время от времени Врата ада. Недавно потерявший отца молодой парень Джейсон неожиданно сталкивается с необходимостью получить помощь таинственного Ордена…
  • Кинопоиск
  • IMDB
  • Blu-ray.com
  • Сэмпл
    Качество: WEB-DL 720p (PHD)
    Контейнер: MKV
    Видео: MPEG-4 AVC Video / 3923 kbps / 1280x540p / 23,976 fps / 2.40:1 / 0.237 bit/pix / Main@L3.1
    Аудио 1: Русский / Dolby Digital Audio / 2.0 / 48 kHz / 224 kbps / 16-bit / DVO "Пираты"
    Аудио 2: English / Dolby Digital Audio / 5.1 / 48 kHz / 384 kbps / 16-bit / Оригинал
    Навигация по главам: да

Скриншот с названием фильма

MediaInfo

C:\***\Орден (The Cloth) 2013, США, ужасы, фантастика, фэнтези, триллер, приключения, WEB-DL 720p GORESEWAGE.mkv
General
Unique ID : 241083203417283386211439604405986933728 (0xB55EEFA14D2AA56EB03FBD4314383BE0)
Complete name : C:\***\Орден (The Cloth) 2013, США, ужасы, фантастика, фэнтези, триллер, приключения, WEB-DL 720p GORESEWAGE.mkv
Format : Matroska
Format version : Version 4 / Version 2
File size : 2.89 GiB
Duration : 1h 29mn
Overall bit rate : 4 623 Kbps
Movie name : GORESEWAGE
Encoded date : UTC 2013-07-18 12:12:03
Writing application : mkvmerge v6.1.0 ('Old Devil') built on Mar 31 2013 15:21:18
Writing library : libebml v1.3.0 + libmatroska v1.4.0
Video #1
ID : 1
Format : AVC
Format/Info : Advanced Video Codec
Format profile : Main@L3.1
Format settings, CABAC : No
Format settings, ReFrames : 2 frames
Codec ID : V_MPEG4/ISO/AVC
Duration : 1h 29mn
Bit rate : 3 923 Kbps
Width : 1 280 pixels
Height : 540 pixels
Display aspect ratio : 2.40:1
Frame rate mode : Constant
Frame rate : 23.976 fps
Color space : YUV
Chroma subsampling : 4:2:0
Bit depth : 8 bits
Scan type : Progressive
Bits/(Pixel*Frame) : 0.237
Stream size : 2.45 GiB (85%)
Title : GORESEWAGE
Language : English
Default : Yes
Forced : No
Color primaries : BT.709
Transfer characteristics : BT.709
Matrix coefficients : BT.709
Audio #2
ID : 2
Format : AC-3
Format/Info : Audio Coding 3
Mode extension : CM (complete main)
Format settings, Endianness : Big
Codec ID : A_AC3
Duration : 1h 29mn
Bit rate mode : Constant
Bit rate : 224 Kbps
Channel(s) : 2 channels
Channel positions : Front: L R
Sampling rate : 48.0 KHz
Bit depth : 16 bits
Compression mode : Lossy
Stream size : 143 MiB (5%)
Title : Любительский (двухголосый закадровый) "Пираты"
Language : Russian
Default : Yes
Forced : No
Audio #3
ID : 3
Format : AC-3
Format/Info : Audio Coding 3
Mode extension : CM (complete main)
Format settings, Endianness : Big
Codec ID : A_AC3
Duration : 1h 29mn
Bit rate mode : Constant
Bit rate : 384 Kbps
Channel(s) : 6 channels
Channel positions : Front: L C R, Side: L R, LFE
Sampling rate : 48.0 KHz
Bit depth : 16 bits
Compression mode : Lossy
Stream size : 246 MiB (8%)
Title : Оригинал
Language : English
Default : No
Forced : No
Text #4
ID : 4
Format : UTF-8
Codec ID : S_TEXT/UTF8
Codec ID/Info : UTF-8 Plain Text
Title : SDH
Language : English
Default : No
Forced : No
Menu
00:00:00.000 : en:Chapter 1
00:07:27.000 : en:Chapter 2
00:14:29.000 : en:Chapter 3
00:25:12.000 : en:Chapter 4
00:36:33.000 : en:Chapter 5
00:44:57.000 : en:Chapter 6
00:56:22.000 : en:Chapter 7
01:06:23.000 : en:Chapter 8
01:13:23.000 : en:Chapter 9
01:22:31.000 : en:Chapter 10

Полноразмерный постер

Скачать

Скачать торрент!

Как скачивать? · Что такое торрент? · Рейтинг и ограничения

Сайт не распространяет и не хранит электронные версии произведений, а лишь предоставляет доступ к создаваемому пользователями каталогу ссылок на торрент-файлы, которые содержат только списки хеш-сумм

[Профиль] [ЛС]
Показать сообщения:    
Ответить на тему

Текущее время: Сегодня 20:38

Часовой пояс: GMT + 4



Вы не можете начинать темы
Вы не можете отвечать на сообщения
Вы не можете редактировать свои сообщения
Вы не можете удалять свои сообщения
Вы не можете голосовать в опросах
Вы не можете прикреплять файлы к сообщениям
Вы не можете скачивать файлы