Серфер души / Жизнь на волне / Soul Surfer (Шон МакНамара / Sean McNamara) [2011, США, драма, спорт, BDRip 720p] MVO + DVO + VO + Original Eng + Sub (Rus, Eng)

Ответить на тему
 
Автор Сообщение

user ®

Стаж: 7 лет 7 месяцев

Сообщений: 20008

Пост Пост: #1 от 22-Июл-2013 12:20

[Цитировать]

Серфер души / Жизнь на волне / Soul Surfer
Страна: США
Жанр: драма, спорт
Год выпуска: 2011
Продолжительность: 01:46:27
Перевод 1: Профессиональный (многоголосый закадровый) [CTC]
Перевод 2: Профессиональный (двухголосый закадровый) студия NLS [Elrom]
Перевод 3: Одноголосый закадровый [Назаров]
Cубтитры: русские, английские
Оригинальная аудиодорожка: английский
Режиссер: Шон МакНамара / Sean McNamara
В ролях: Анна-Cофия Робб, Деннис Куэйд, Хелен Хант, Лоррэйн Николсон, Кэрри Андервуд, Росс Томас, Кевин Сорбо, Коуди Гомес, Соня Балморес, Крис Брошу
Описание: Спортивный байопик о жизни серфингистки Бетани Хэмилтон. С детства Бетани увлекалась серфингом, но в 13 лет у северного побережья Кауай на нее напала акула; в результате атаки девушка осталась без левой руки и чуть было не погибла. Но сила воли и настоящий характер сыграли свое дело - Бэттани, несмотря ни на что, вновь встала на доску и начала принимать участие в соревнованиях на правах полностью здорового серфера.

Тип релиза: BDRip 720p
Контейнер: MKV
Видео: 1280x534 (2.40:1), 23.976 fps, 5 229 Kbps, 0.319 bit/pixel
Аудио 1: 48.0 kHz, AC3, 2/0 (L,R) ch, 192 kbps (2ch) / MVO
Аудио 2: 48.0 kHz, AC3, 2/0 (L,R) ch, 192 kbps (2ch) / DVO
Аудио 3: 48.0 kHz, DTS, 3/2 (L,C,R,l,r) + LFE ch, 1 510 Kbps (6ch) / VO
Аудио 4: 48.0 kHz, DTS, 3/2 (L,C,R,l,r) + LFE ch, 1 510 Kbps (6ch) / ENG
Формат субтитров: softsub (SRT)

MediaInfo

Format : Matroska
Format version : Version 4 / Version 2
File size : 6.42 GiB
Duration : 1h 46mn
Overall bit rate : 8 634 Kbps
Movie name : Soul Surfer 2011 Release for HDCLUB
Encoded date : UTC 2013-07-18 10:48:57
Writing application : mkvmerge v6.1.0 ('Old Devil') built on Mar 2 2013 14:32:37
Writing library : libebml v1.3.0 + libmatroska v1.4.0
Video
ID : 1
Format : AVC
Format/Info : Advanced Video Codec
Format profile : High@L4.1
Format settings, CABAC : Yes
Format settings, ReFrames : 12 frames
Codec ID : V_MPEG4/ISO/AVC
Duration : 1h 46mn
Bit rate : 5 229 Kbps
Width : 1 280 pixels
Height : 534 pixels
Display aspect ratio : 2.40:1
Frame rate : 23.976 fps
Color space : YUV
Chroma subsampling : 4:2:0
Bit depth : 8 bits
Scan type : Progressive
Bits/(Pixel*Frame) : 0.319
Stream size : 3.76 GiB (59%)
Title : Goliaf.tv
Writing library : x264 core 115 r2008+578 3864dbe
Encoding settings : cabac=1 / ref=12 / deblock=1:-3:-3 / analyse=0x3:0x113 / me=umh / subme=10 / psy=1 / fade_compensate=0.00 / psy_rd=1.05:0.10 / mixed_ref=1 / me_range=32 / chroma_me=1 / trellis=2 / 8x8dct=1 / cqm=1 / deadzone=21,11 / fast_pskip=0 / chroma_qp_offset=-2 / threads=6 / sliced_threads=0 / nr=0 / decimate=1 / interlaced=0 / bluray_compat=0 / constrained_intra=0 / fgo=0 / bframes=6 / b_pyramid=2 / b_adapt=2 / b_bias=0 / direct=3 / weightb=1 / open_gop=0 / weightp=2 / keyint=250 / keyint_min=23 / scenecut=40 / intra_refresh=0 / rc_lookahead=40 / rc=2pass / mbtree=1 / bitrate=5229 / ratetol=1.0 / qcomp=0.70 / qpmin=3 / qpmax=69 / qpstep=4 / cplxblur=20.0 / qblur=0.5 / vbv_maxrate=40000 / vbv_bufsize=30000 / nal_hrd=none / ip_ratio=1.40 / aq=2:1.00
Language : English
Default : No
Forced : No
Audio #1
ID : 2
Format : AC-3
Format/Info : Audio Coding 3
Mode extension : CM (complete main)
Codec ID : A_AC3
Duration : 1h 46mn
Bit rate mode : Constant
Bit rate : 192 Kbps
Channel(s) : 2 channels
Channel positions : Front: L R
Sampling rate : 48.0 KHz
Bit depth : 16 bits
Compression mode : Lossy
Stream size : 146 MiB (2%)
Title : - Многоголосый (CTC) ~192 kbps
Language : Russian
Default : Yes
Forced : No
Audio #2
ID : 3
Format : AC-3
Format/Info : Audio Coding 3
Mode extension : CM (complete main)
Codec ID : A_AC3
Duration : 1h 46mn
Bit rate mode : Constant
Bit rate : 192 Kbps
Channel(s) : 2 channels
Channel positions : Front: L R
Sampling rate : 48.0 KHz
Bit depth : 16 bits
Compression mode : Lossy
Stream size : 146 MiB (2%)
Title : - Двухголосый - студия NLS [Elrom] ~192 kbps
Language : Russian
Default : No
Forced : No
Audio #3
ID : 4
Format : DTS
Format/Info : Digital Theater Systems
Codec ID : A_DTS
Duration : 1h 46mn
Bit rate mode : Constant
Bit rate : 1 510 Kbps
Channel(s) : 6 channels
Channel positions : Front: L C R, Side: L R, LFE
Sampling rate : 48.0 KHz
Bit depth : 24 bits
Compression mode : Lossy
Delay relative to video : 11ms
Stream size : 1.12 GiB (17%)
Title : - Авторский VadimNaz - DTS 5.1 1536 kbps
Language : Russian
Default : No
Forced : No
Audio #4
ID : 5
Format : DTS
Format/Info : Digital Theater Systems
Codec ID : A_DTS
Duration : 1h 46mn
Bit rate mode : Constant
Bit rate : 1 510 Kbps
Channel(s) : 6 channels
Channel positions : Front: L C R, Side: L R, LFE
Sampling rate : 48.0 KHz
Bit depth : 24 bits
Compression mode : Lossy
Delay relative to video : 22ms
Stream size : 1.12 GiB (17%)
Title : - Оригинал - DTS 5.1 1536 kbps
Language : English
Default : No
Forced : No
Text #1
ID : 6
Format : UTF-8
Codec ID : S_TEXT/UTF8
Codec ID/Info : UTF-8 Plain Text
Language : Russian
Default : No
Forced : No
Text #2
ID : 7
Format : UTF-8
Codec ID : S_TEXT/UTF8
Codec ID/Info : UTF-8 Plain Text
Language : English
Default : Yes
Forced : No
Скачать

Скачать торрент!

Как скачивать? · Что такое торрент? · Рейтинг и ограничения

Сайт не распространяет и не хранит электронные версии произведений, а лишь предоставляет доступ к создаваемому пользователями каталогу ссылок на торрент-файлы, которые содержат только списки хеш-сумм

[Профиль] [ЛС]
Показать сообщения:    
Ответить на тему

Текущее время: Сегодня 02:17

Часовой пояс: GMT + 4



Вы не можете начинать темы
Вы не можете отвечать на сообщения
Вы не можете редактировать свои сообщения
Вы не можете удалять свои сообщения
Вы не можете голосовать в опросах
Вы не можете прикреплять файлы к сообщениям
Вы не можете скачивать файлы