Слабые проблески / Rushlights (Энтони Стац / Antoni Stutz) [2013, США, триллер, мелодрама, криминал, BDRemux 1080p] DVO ("Пираты") + Original Eng + Sub Eng

Ответить на тему
 
Автор Сообщение

user ®

Стаж: 7 лет 7 месяцев

Сообщений: 20008

Пост Пост: #1 от 22-Июл-2013 12:20

[Цитировать]

Слабые проблески / Rushlights«All is Fair in Love and Murder.» Год выпуска: 2013
Страна: США
Жанр: триллер, мелодрама, криминал
Продолжительность: 01:36:21
Перевод: Любительский (двухголосый закадровый) "Пираты"
Оригинальная аудиодорожка: Английская
Субтитры: Английские (Full)
Студия: Rushlights
Режиссёр: Энтони Стац / Antoni Stutz
В ролях: Бо Бриджес, Эйдан Куинн, Джош Хендерсон, Хейли Уэбб, Джордан Бриджес, Лорна Рэвер, Джоэль МакКиннон Миллер, Криспиан Белфрадж, Филип Ленковски, Эйлин Грубба и др.
Описание: Парочка молодых влюблённых из Лос-Анджелеса – Билли и Сара решают провернуть небольшую аферу с целью обогащения. Для этого они отправляются в маленький городок в Техасе, чтобы обманным путём получить наследство погибшего парня, который якобы был их товарищем. Однако здесь им предстоит оказаться в кошмарной атмосфере жадности и предательства, когда они столкнутся с представителями местного преступного мира...
  • Кинопоиск
  • IMDB
  • Blu-ray.com
  • Сэмпл
    Качество: BDRemux 1080p (Rushlights 2013 1080p Blu-ray AVC DTS-HD MA 5.1-HDWinG)
    Контейнер: MKV
    Видео: MPEG-4 AVC Video / 24945 kbps / 1920x1080p / 23.976 fps / 16:9 / High Profile 4.1
    Аудио 1: Русский / Dolby Digital Audio / 2.0 / 48 kHz / 192 kbps / 16-bit / DVO "Пираты"
    Аудио 2: English / DTS-HD Master Audio / 5.1 / 48 kHz / 2027 kbps / 16 bit (DTS Core: 5.1 / 48 kHz / 1509 / 16 bit) / Оригинал
    Навигация по главам: да

Скриншот с названием фильма

MediaInfo

C:\***\Слабые проблески (Rushlights) 2013, США, триллер, мелодрама, криминал, BDRemux 1080p GORESEWAGE.mkv
General
Unique ID : 178783658893691451312927507735686547264 (0x86807AEFE5CB3FB29D130497A8C60740)
Complete name : C:\***\Слабые проблески (Rushlights) 2013, США, триллер, мелодрама, криминал, BDRemux 1080p GORESEWAGE.mkv
Format : Matroska
Format version : Version 4 / Version 2
File size : 18.3 GiB
Duration : 1h 36mn
Overall bit rate mode : Variable
Overall bit rate : 27.2 Mbps
Movie name : GORESEWAGE
Encoded date : UTC 2013-07-19 16:11:54
Writing application : mkvmerge v6.1.0 ('Old Devil') built on Mar 31 2013 15:21:18
Writing library : libebml v1.3.0 + libmatroska v1.4.0
Video #1
ID : 1
Format : AVC
Format/Info : Advanced Video Codec
Format profile : High@L4.1
Format settings, CABAC : Yes
Format settings, ReFrames : 4 frames
Format settings, GOP : M=3, N=24
Codec ID : V_MPEG4/ISO/AVC
Duration : 1h 36mn
Bit rate mode : Variable
Bit rate : 24.9 Mbps
Maximum bit rate : 35.0 Mbps
Width : 1 920 pixels
Height : 1 080 pixels
Display aspect ratio : 16:9
Frame rate mode : Constant
Frame rate : 23.976 fps
Standard : NTSC
Color space : YUV
Chroma subsampling : 4:2:0
Bit depth : 8 bits
Scan type : Progressive
Bits/(Pixel*Frame) : 0.500
Stream size : 16.7 GiB (92%)
Title : GORESEWAGE
Language : English
Default : Yes
Forced : No
Color primaries : BT.709
Transfer characteristics : BT.709
Matrix coefficients : BT.709
Audio #2
ID : 2
Format : AC-3
Format/Info : Audio Coding 3
Mode extension : CM (complete main)
Format settings, Endianness : Big
Codec ID : A_AC3
Duration : 1h 36mn
Bit rate mode : Constant
Bit rate : 192 Kbps
Channel(s) : 2 channels
Channel positions : Front: L R
Sampling rate : 48.0 KHz
Bit depth : 16 bits
Compression mode : Lossy
Stream size : 132 MiB (1%)
Title : Любительский (двухголосый закдровый) "Пираты"
Language : Russian
Default : Yes
Forced : No
Audio #3
ID : 3
Format : DTS
Format/Info : Digital Theater Systems
Format profile : MA / Core
Codec ID : A_DTS
Duration : 1h 36mn
Bit rate mode : Variable
Bit rate : 1 561 Kbps / 1 510 Kbps
Channel(s) : 6 channels
Channel positions : Front: L C R, Side: L R, LFE
Sampling rate : 48.0 KHz
Bit depth : 16 bits
Compression mode : Lossless / Lossy
Title : Оригинал
Language : English
Default : No
Forced : No
Text #4
ID : 4
Format : UTF-8
Codec ID : S_TEXT/UTF8
Codec ID/Info : UTF-8 Plain Text
Title : Full
Language : English
Default : No
Forced : No
Menu
00:00:00.000 : en:00:00:00.000
00:07:29.783 : en:00:07:29.783
00:14:55.520 : en:00:14:55.520
00:24:03.025 : en:00:24:03.025
00:32:23.817 : en:00:32:23.817
00:38:38.691 : en:00:38:38.691
00:46:28.411 : en:00:46:28.411
00:54:20.757 : en:00:54:20.757
01:03:04.155 : en:01:03:04.155
01:12:48.739 : en:01:12:48.739
01:24:08.961 : en:01:24:08.961
01:32:27.041 : en:01:32:27.041

Полноразмерный постер

Скачать

Скачать торрент!

Как скачивать? · Что такое торрент? · Рейтинг и ограничения

Сайт не распространяет и не хранит электронные версии произведений, а лишь предоставляет доступ к создаваемому пользователями каталогу ссылок на торрент-файлы, которые содержат только списки хеш-сумм

[Профиль] [ЛС]
Показать сообщения:    
Ответить на тему

Текущее время: Сегодня 00:43

Часовой пояс: GMT + 4



Вы не можете начинать темы
Вы не можете отвечать на сообщения
Вы не можете редактировать свои сообщения
Вы не можете удалять свои сообщения
Вы не можете голосовать в опросах
Вы не можете прикреплять файлы к сообщениям
Вы не можете скачивать файлы