Класс / Klass (Ильмар Рааг / Ilmar Raag) [2007, Эстония, драма, BDRemux 1080i] MVO (R5) + 3x VO + Original (Est) + Subs (Rus, Eng, Est)

Ответить на тему
 
Автор Сообщение

user ®

Стаж: 7 лет 7 месяцев

Сообщений: 20008

Пост Пост: #1 от 22-Июл-2013 12:20

[Цитировать]

Класс / Klass

-
-Страна: Эстония
Студия: Amrion, Eesti Televisioon
Жанр: драма
Год выпуска: 2007
Продолжительность: 01:37:35--Перевод 1: Профессиональный (многоголосый закадровый) R5
Перевод 2: Одноголосый закадровый lehachuev
Перевод 3: Одноголосый закадровый Киноворлд
Перевод 4: Одноголосый закадровый Синхито
Cубтитры: русские (2 вида), эстонские, английские
Оригинальная аудиодорожка: эстонский--Режиссер: Ильмар Рааг / Ilmar Raag
В ролях: Валло Кирс, Пярт Уусберг, Лаури Педайя, Паула Солвак, Микк Мяги, Риина Риес, Йонас Паас, Вирго Эрнитс...--Описание: Обычная эстонская школа, выпускной класс. Парень по имени Йозеп постоянно терпит насмешки и издевательства со стороны одноклассников. Никогда не отвечая на выпады, он провоцирует их заходить в глупых «шутках» все дальше и дальше, до тех пор, пока за него не заступился один из бывших насмешников — Каспар. В классе начинается противостояние, которое постепенно накаляется, приближая неминуемую развязку…--imdb | kinopoisk | Сэмпл--Тип релиза: BDRemux 1080i [The Class 2007 1080i CZE Blu-ray AVC DD 5.1]
Контейнер: MKV
Видео: MPEG-4 AVC / 19997 kbps / 1920x1080 / 25 fps / 16:9 / High Profile 4.1
Аудио 1: AC3 / 2.0 / 48 kHz / 192 kbps / 16 bits |MVO|
Аудио 2: AC3 / 2.0 / 48 kHz / 192 kbps / 16 bits |lehachuev|
Аудио 3: AC3 / 2.0 / 48 kHz / 192 kbps / 16 bits |Киноворлд|
Аудио 4: AC3 / 2.0 / 48 kHz / 192 kbps / 16 bits |Синхито|
Аудио 5: AC3 / 5.1 / 48 kHz / 640 kbps / 16 bits |original|
Формат субтитров: softsub [SRT]

MediaInfo

Общее
Уникальный идентификатор : 253931967297648604685658816205445146809 (0xBF09849964405D4B9C37EB97C1E828B9)
Полное имя : G:\HD\Класс.2007.Blu-Ray.Remux.(1080p).mkv
Формат : Matroska
Версия формата : Version 2
Размер файла : 14,6 Гбайт
Продолжительность : 1 ч. 37 м.
Режим общего битрейта : Переменный
Общий поток : 21,4 Мбит/сек
Дата кодирования : UTC 2013-07-20 14:33:20
Программа кодирования : mkvmerge v5.8.0 ('No Sleep / Pillow') built on Sep 2 2012 15:37:04
Библиотека кодирования : libebml v1.2.3 + libmatroska v1.3.0
Attachment : Yes
Видео
Идентификатор : 1
Формат : AVC
Формат/Информация : Advanced Video Codec
Профиль формата : High@L4.1
Параметр CABAC формата : Да
Параметр ReFrames формата : 4 кадра
Параметр GOP формата : M=3, N=24
Режим смешивания : Container profile=Unknown@0.0
Идентификатор кодека : V_MPEG4/ISO/AVC
Продолжительность : 1 ч. 37 м.
Вид битрейта : Переменный
Битрейт : 19,6 Мбит/сек
Максимальный битрейт : 36,0 Мбит/сек
Ширина : 1920 пикселей
Высота : 1080 пикселей
Соотношение сторон : 16:9
Режим частоты кадров : Постоянный
Частота кадров : 25,000 кадров/сек
Стандарт вещания : PAL
Цветовое пространство : YUV
Субдискретизация насыщенности : 4:2:0
Битовая глубина : 8 бит
Тип развёртки : MBAFF
Бит/(Пиксели*Кадры) : 0.378
Размер потока : 13,3 Гбайт (91%)
Default : Да
Forced : Нет
Основные цвета : BT.709
Характеристики трансфера : BT.709
Коэффициенты матрицы : BT.709
Аудио #1
Идентификатор : 2
Формат : AC-3
Формат/Информация : Audio Coding 3
Расширение режима : CM (complete main)
Параметр Endianness формата : Big
Идентификатор кодека : A_AC3
Продолжительность : 1 ч. 37 м.
Вид битрейта : Постоянный
Битрейт : 192 Кбит/сек
Каналы : 2 канала
Расположение каналов : Front: L R
Частота : 48,0 КГц
Битовая глубина : 16 бит
Метод сжатия : С потерями
Размер потока : 134 Мбайт (1%)
Заголовок : MVO, R5
Язык : Russian
Default : Да
Forced : Нет
Аудио #2
Идентификатор : 3
Формат : AC-3
Формат/Информация : Audio Coding 3
Расширение режима : CM (complete main)
Параметр Endianness формата : Big
Идентификатор кодека : A_AC3
Продолжительность : 1 ч. 37 м.
Вид битрейта : Постоянный
Битрейт : 192 Кбит/сек
Каналы : 2 канала
Расположение каналов : Front: L R
Частота : 48,0 КГц
Битовая глубина : 16 бит
Метод сжатия : С потерями
Размер потока : 134 Мбайт (1%)
Заголовок : Киноворлд
Язык : Russian
Default : Нет
Forced : Нет
Аудио #3
Идентификатор : 4
Формат : AC-3
Формат/Информация : Audio Coding 3
Расширение режима : CM (complete main)
Параметр Endianness формата : Big
Идентификатор кодека : A_AC3
Продолжительность : 1 ч. 37 м.
Вид битрейта : Постоянный
Битрейт : 192 Кбит/сек
Каналы : 2 канала
Расположение каналов : Front: L R
Частота : 48,0 КГц
Битовая глубина : 16 бит
Метод сжатия : С потерями
Размер потока : 134 Мбайт (1%)
Заголовок : lehachuev
Язык : Russian
Default : Нет
Forced : Нет
Аудио #4
Идентификатор : 5
Формат : AC-3
Формат/Информация : Audio Coding 3
Расширение режима : CM (complete main)
Параметр Endianness формата : Big
Идентификатор кодека : A_AC3
Продолжительность : 1 ч. 37 м.
Вид битрейта : Постоянный
Битрейт : 192 Кбит/сек
Каналы : 2 канала
Расположение каналов : Front: L R
Частота : 48,0 КГц
Битовая глубина : 16 бит
Метод сжатия : С потерями
Размер потока : 134 Мбайт (1%)
Заголовок : Синхито
Язык : Russian
Default : Нет
Forced : Нет
Аудио #5
Идентификатор : 6
Формат : AC-3
Формат/Информация : Audio Coding 3
Расширение режима : CM (complete main)
Параметр Endianness формата : Big
Идентификатор кодека : A_AC3
Продолжительность : 1 ч. 37 м.
Вид битрейта : Постоянный
Битрейт : 640 Кбит/сек
Каналы : 6 каналов
Расположение каналов : Front: L C R, Side: L R, LFE
Частота : 48,0 КГц
Битовая глубина : 16 бит
Метод сжатия : С потерями
Размер потока : 447 Мбайт (3%)
Язык : Estonian
Default : Нет
Forced : Нет
Текст #1
Идентификатор : 7
Формат : UTF-8
Идентификатор кодека : S_TEXT/UTF8
Идентификатор кодека/Информация : UTF-8 Plain Text
Заголовок : R5
Язык : Russian
Default : Нет
Forced : Нет
Текст #2
Идентификатор : 8
Формат : UTF-8
Идентификатор кодека : S_TEXT/UTF8
Идентификатор кодека/Информация : UTF-8 Plain Text
Язык : Russian
Default : Нет
Forced : Нет
Текст #3
Идентификатор : 9
Формат : UTF-8
Идентификатор кодека : S_TEXT/UTF8
Идентификатор кодека/Информация : UTF-8 Plain Text
Язык : Estonian
Default : Нет
Forced : Нет
Текст #4
Идентификатор : 10
Формат : UTF-8
Идентификатор кодека : S_TEXT/UTF8
Идентификатор кодека/Информация : UTF-8 Plain Text
Язык : English
Default : Нет
Forced : Нет
Меню
00:00:00.000 : :Chapter 01
00:15:49.800 : :Chapter 02
00:31:33.760 : :Chapter 03
00:46:16.000 : :Chapter 04
01:06:18.600 : :Chapter 05
01:21:32.720 : :Chapter 06

Скриншоты


Скачать

Скачать торрент!

Как скачивать? · Что такое торрент? · Рейтинг и ограничения

Сайт не распространяет и не хранит электронные версии произведений, а лишь предоставляет доступ к создаваемому пользователями каталогу ссылок на торрент-файлы, которые содержат только списки хеш-сумм

[Профиль] [ЛС]
Показать сообщения:    
Ответить на тему

Текущее время: Сегодня 08:41

Часовой пояс: GMT + 4



Вы не можете начинать темы
Вы не можете отвечать на сообщения
Вы не можете редактировать свои сообщения
Вы не можете удалять свои сообщения
Вы не можете голосовать в опросах
Вы не можете прикреплять файлы к сообщениям
Вы не можете скачивать файлы