Ангелы Чарли 2: Полный вперед / Charlie's Angels: Full Throttle (МакДжи / McG) [2003, боевик, комедия, BDRemux 1080p] DUB + 2x MVO + UKR + Original Eng + Sub (rus, eng)

Ответить на тему
 
Автор Сообщение

user ®

Стаж: 7 лет 7 месяцев

Сообщений: 20008

Пост Пост: #1 от 22-Июл-2013 12:20

[Цитировать]

Ангелы Чарли 2: Только вперед / Charlie's Angels: Full Throttle- Год выпуска : 2003
Страна : США
Жанр : боевик, комедия, криминал, приключения
Продолжительность : 01:47:06
Перевод 1 : Профессиональный (полное дублирование)
Перевод 2 : Профессиональный (многоголосый, закадровый)
Перевод 3 : Профессиональный (многоголосый, закадровый) - СТС
Субтитры : русские (форсированные, полные), английские-Режиссер : МакДжи / McG
В ролях : Кэмерон Диаз, Дрю Бэрримор, Люси Лью, Берни Мак, Криспин Гловер, ДжастинТеру, Роберт Патрик, Деми Мур, Родриго Санторо, Шайа ЛаБаф-Описание : Самое мощное секретное оружие Америки снова в действии! Ангелы Чарли готовы к новым подвигам! На сей раз главный злодей практически неотразим. Он красив, сексапилен, все умеет — серфинг, мотогонки.
Девчонкам придется нелегко, им нужно найти похищенные титановые кольца. Это не простые украшения, а особые носители информации, на которых микротекстом выгравированы имена и адреса всех участников федеральной программы защиты свидетелей… Доброе утро, Ангелы! За работу!
-Доп. информация : За дорожку №3 спасибо человеку, пожелавшему остаться инкогнито. Собственно запись с ТВ и создание дороги, это заслуга этого человека.
-
-Качество : BDRemux
Формат : MKV
Видео : AVC, 1920x1080, 27905 kbps, 23.976 fps
Аудио 1 : Russian AC3, 48000 Hz, 5.1 channels, 640 Kbps - Профессиональный (полное дублирование)
Аудио 2 : Russian AC3, 48000 Hz, 5.1 channels, 384 Kbps - Профессиональный (многоголосый)
Аудио 3 : Russian AC3, 48000 Hz, 5.1 channels, 384 Kbps - Профессиональный (многоголосый) - СТС
Аудио 4 : Ukraine AC3, 48000 Hz, 5.1 channels, 384 Kbps - Профессиональный (полное дублирование) - Так Треба Продакшн (украинский)
Аудио 5 : English DTSHD, 48000 Hz, 5.1 channels, 4084 kbps (DTS Core: 5.1 / 48 kHz / 1509 kbps / 24-bit) - Оригинальный (английский)
Субтитры : SRT
Главы : есть
-

Cкриншоты


Резервные скриншоты



-

MediaInfo

Format                                   : Matroska
Format version                           : Version 4 / Version 2
File size                                : 25.3 GiB
Duration                                 : 1h 47mn
Overall bit rate mode                    : Variable
Overall bit rate                         : 33.8 Mbps
Movie name                               : Ангелы Чарли 2: Полный вперед / Charlie's Angels: Full Throttle (2003) BDRemux - RG Torrents.ru
Encoded date                             : UTC 2013-07-21 12:47:15
Writing application                      : mkvmerge v6.3.0 ('You can't stop me!') built on Jun 28 2013 20:09:41
Writing library                          : libebml v1.3.0 + libmatroska v1.4.0
Attachment                               : Yes
Video
ID                                       : 1
Format                                   : AVC
Format/Info                              : Advanced Video Codec
Format profile                           : High@L4.1
Format settings, CABAC                   : Yes
Format settings, ReFrames                : 2 frames
Codec ID                                 : V_MPEG4/ISO/AVC
Duration                                 : 1h 47mn
Bit rate mode                            : Variable
Width                                    : 1 920 pixels
Height                                   : 1 080 pixels
Display aspect ratio                     : 16:9
Frame rate mode                          : Constant
Frame rate                               : 23.976 fps
Color space                              : YUV
Chroma subsampling                       : 4:2:0
Bit depth                                : 8 bits
Scan type                                : Progressive
Title                                    : RG Torrents.ru
Language                                 : English
Default                                  : Yes
Forced                                   : No
Audio #1
ID                                       : 2
Format                                   : AC-3
Format/Info                              : Audio Coding 3
Mode extension                           : CM (complete main)
Format settings, Endianness              : Big
Codec ID                                 : A_AC3
Duration                                 : 1h 47mn
Bit rate mode                            : Constant
Bit rate                                 : 640 Kbps
Channel(s)                               : 6 channels
Channel positions                        : Front: L C R, Side: L R, LFE
Sampling rate                            : 48.0 KHz
Bit depth                                : 16 bits
Compression mode                         : Lossy
Stream size                              : 490 MiB (2%)
Title                                    : DUB
Language                                 : Russian
Default                                  : Yes
Forced                                   : No
Audio #2
ID                                       : 3
Format                                   : AC-3
Format/Info                              : Audio Coding 3
Mode extension                           : CM (complete main)
Format settings, Endianness              : Big
Codec ID                                 : A_AC3
Duration                                 : 1h 47mn
Bit rate mode                            : Constant
Bit rate                                 : 384 Kbps
Channel(s)                               : 6 channels
Channel positions                        : Front: L C R, Side: L R, LFE
Sampling rate                            : 48.0 KHz
Bit depth                                : 16 bits
Compression mode                         : Lossy
Stream size                              : 294 MiB (1%)
Title                                    : MVO
Language                                 : Russian
Default                                  : No
Forced                                   : No
Audio #3
ID                                       : 4
Format                                   : AC-3
Format/Info                              : Audio Coding 3
Mode extension                           : CM (complete main)
Format settings, Endianness              : Big
Codec ID                                 : A_AC3
Duration                                 : 1h 47mn
Bit rate mode                            : Constant
Bit rate                                 : 384 Kbps
Channel(s)                               : 6 channels
Channel positions                        : Front: L C R, Side: L R, LFE
Sampling rate                            : 48.0 KHz
Bit depth                                : 16 bits
Compression mode                         : Lossy
Stream size                              : 294 MiB (1%)
Title                                    : MVO - CTC
Language                                 : Russian
Default                                  : No
Forced                                   : No
Audio #4
ID                                       : 5
Format                                   : AC-3
Format/Info                              : Audio Coding 3
Mode extension                           : CM (complete main)
Format settings, Endianness              : Big
Codec ID                                 : A_AC3
Duration                                 : 1h 47mn
Bit rate mode                            : Constant
Bit rate                                 : 384 Kbps
Channel(s)                               : 6 channels
Channel positions                        : Front: L C R, Side: L R, LFE
Sampling rate                            : 48.0 KHz
Bit depth                                : 16 bits
Compression mode                         : Lossy
Stream size                              : 294 MiB (1%)
Title                                    : DUB - Так Треба Продакшн
Language                                 : Ukrainian
Default                                  : No
Forced                                   : No
Audio #5
ID                                       : 6
Format                                   : DTS
Format/Info                              : Digital Theater Systems
Format profile                           : MA / Core
Mode                                     : 16
Format settings, Endianness              : Big
Codec ID                                 : A_DTS
Duration                                 : 1h 47mn
Bit rate mode                            : Variable
Bit rate                                 : Unknown / 1 509 Kbps
Channel(s)                               : 6 channels
Channel positions                        : Front: L C R, Side: L R, LFE
Sampling rate                            : 48.0 KHz
Bit depth                                : 24 bits
Compression mode                         : Lossless / Lossy
Title                                    : Original
Language                                 : English
Default                                  : No
Forced                                   : No
Text #1
ID                                       : 7
Format                                   : UTF-8
Codec ID                                 : S_TEXT/UTF8
Codec ID/Info                            : UTF-8 Plain Text
Title                                    : Forced
Language                                 : Russian
Default                                  : Yes
Forced                                   : No
Text #2
ID                                       : 8
Format                                   : UTF-8
Codec ID                                 : S_TEXT/UTF8
Codec ID/Info                            : UTF-8 Plain Text
Language                                 : Russian
Default                                  : No
Forced                                   : No
Text #3
ID                                       : 9
Format                                   : UTF-8
Codec ID                                 : S_TEXT/UTF8
Codec ID/Info                            : UTF-8 Plain Text
Language                                 : English
Default                                  : No
Forced                                   : No
Menu
00:00:00.000                             : en:Chapter 01
00:09:06.295                             : en:Chapter 02
00:13:05.493                             : en:Chapter 03
00:19:37.342                             : en:Chapter 04
00:29:12.917                             : en:Chapter 05
00:36:28.769                             : en:Chapter 06
00:46:09.725                             : en:Chapter 07
00:51:52.943                             : en:Chapter 08
00:56:59.916                             : en:Chapter 09
01:03:13.706                             : en:Chapter 10
01:06:59.223                             : en:Chapter 11
01:13:53.262                             : en:Chapter 12
01:19:54.164                             : en:Chapter 13
01:26:50.663                             : en:Chapter 14
01:31:32.778                             : en:Chapter 15
01:36:27.990                             : en:Chapter 16
-[url=http://***/forum/tracker.php?rid=4335937#results] Другие мои раздачи [/url][url=http://***/forum/tracker.php?rid=4335937#results] [/url]
Скачать

Скачать торрент!

Как скачивать? · Что такое торрент? · Рейтинг и ограничения

Сайт не распространяет и не хранит электронные версии произведений, а лишь предоставляет доступ к создаваемому пользователями каталогу ссылок на торрент-файлы, которые содержат только списки хеш-сумм

[Профиль] [ЛС]
Показать сообщения:    
Ответить на тему

Текущее время: Сегодня 02:15

Часовой пояс: GMT + 4



Вы не можете начинать темы
Вы не можете отвечать на сообщения
Вы не можете редактировать свои сообщения
Вы не можете удалять свои сообщения
Вы не можете голосовать в опросах
Вы не можете прикреплять файлы к сообщениям
Вы не можете скачивать файлы