Близнецы-убийцы / Seconds Apart (Антонио Негрет / Antonio Negret) [2010, США, ужасы, триллер, BDRemux 1080p] MVO (R5) + VO (Voiz) + Original Eng + Sub (Rus, Ukr, Eng)

Ответить на тему
 
Автор Сообщение

user ®

Стаж: 7 лет 7 месяцев

Сообщений: 20008

Пост Пост: #1 от 22-Июл-2013 12:20

[Цитировать]

Близнецы-убийцы / Seconds Apart «Смерть пришла не одна.» Год выпуска: 2010
Страна: США
Жанр: ужасы, триллер
Продолжительность: 01:29:06.880
Перевод 1: Профессиональный (многоголосый закадровый) R5
Перевод 2: Одноголосый закадровый Voiz по субтитрам Mokum
Оригинальная аудиодорожка: Английская
Субтитры: Русские (Mokum), украинские (DVD), английские (Full)
Студия: After Dark Films
Режиссёр: Антонио Негрет / Antonio Negret
В ролях: Орландо Джонс, Эдмунд Энтин, Гари Энтин, Саманта Дроук, Моргана Шоу, Луис Хертэм, Марк Маколей, Джеймс ДюМонт, Дженнифер Формен, Дэвид Дженсен и др.
Описание: Мальчики из хорошего общества… Кто скажет, что они - безжалостные убийцы? Их дар - телекинез и этот дар стал их проклятием. Невероятные способности помутнённого разума становятся орудием таких отвратительных преступлений, на которые способно лишь самое извращённое сознание. Сыщики ищут след загадочных маньяков. А в это время зло порождает жестокий конфликт между самими братьями-монстрами…
  • Кинопоиск
  • IMDB
  • Blu-ray.com
  • Сэмпл
    Качество: BDRemux 1080p
    Контейнер: MKV
    Видео кодек: MPEG-4 AVC Video
    Аудио кодек: DTS Audio / DTS Audio / Dolby Digital Audio
    Видео: MPEG-4 AVC Video / 23912 kbps / 1920x1080p / 23,976 fps / 16:9 / High Profile 4.1
    Аудио 1: Русский / Dolby Digital Audio / 5.1 / 48 kHz / 384 kbps / 16-bit / MVO R5
    Аудио 2: Русский / DTS Audio / 5.1 / 48 kHz / 1536 kbps / 16-bit / VO Voiz
    Аудио 3: English / DTS-HD Master Audio / 5.1 / 48 kHz / 2158 kbps / 16-bit (DTS Core: 5.1 / 48 kHz / 1509 kbps / 16-bit) / Оригинал
    Навигация по главам: да

Скриншот с названием фильма

MediaInfo

C:\***\Близнецы-убийцы (Seconds Apart) 2010, США, ужасы, триллер, BDRemux 1080p GORESEWAGE.mkv
General
Unique ID : 220600786315835594922495815832786828942 (0xA5F62A7FC4EC73DF9669767503ADFE8E)
Complete name : C:\***\Близнецы-убийцы (Seconds Apart) 2010, США, ужасы, триллер, BDRemux 1080p GORESEWAGE.mkv
Format : Matroska
Format version : Version 4 / Version 2
File size : 17.4 GiB
Duration : 1h 29mn
Overall bit rate mode : Variable
Overall bit rate : 28.0 Mbps
Movie name : GORESEWAGE
Encoded date : UTC 2013-07-21 16:22:07
Writing application : mkvmerge v6.1.0 ('Old Devil') built on Mar 31 2013 15:21:18
Writing library : libebml v1.3.0 + libmatroska v1.4.0
Video #1
ID : 1
Format : AVC
Format/Info : Advanced Video Codec
Format profile : High@L4.1
Format settings, CABAC : Yes
Format settings, ReFrames : 4 frames
Codec ID : V_MPEG4/ISO/AVC
Duration : 1h 29mn
Bit rate mode : Variable
Bit rate : 23.5 Mbps
Maximum bit rate : 40.0 Mbps
Width : 1 920 pixels
Height : 1 080 pixels
Display aspect ratio : 16:9
Frame rate mode : Constant
Frame rate : 23.976 fps
Color space : YUV
Chroma subsampling : 4:2:0
Bit depth : 8 bits
Scan type : Progressive
Bits/(Pixel*Frame) : 0.472
Stream size : 14.6 GiB (84%)
Title : GORESEWAGE
Language : English
Default : Yes
Forced : No
Color primaries : BT.709
Transfer characteristics : BT.709
Matrix coefficients : BT.709
Audio #2
ID : 2
Format : AC-3
Format/Info : Audio Coding 3
Mode extension : CM (complete main)
Format settings, Endianness : Big
Codec ID : A_AC3
Duration : 1h 29mn
Bit rate mode : Constant
Bit rate : 384 Kbps
Channel(s) : 6 channels
Channel positions : Front: L C R, Side: L R, LFE
Sampling rate : 48.0 KHz
Bit depth : 16 bits
Compression mode : Lossy
Stream size : 245 MiB (1%)
Title : Профессиональный (многоголосый закадровый) R5
Language : Russian
Default : Yes
Forced : No
Audio #3
ID : 3
Format : DTS
Format/Info : Digital Theater Systems
Codec ID : A_DTS
Duration : 1h 29mn
Bit rate mode : Constant
Bit rate : 1 510 Kbps
Channel(s) : 6 channels
Channel positions : Front: L C R, Side: L R, LFE
Sampling rate : 48.0 KHz
Bit depth : 16 bits
Compression mode : Lossy
Stream size : 962 MiB (5%)
Title : Одноголосый закадровый Voiz
Language : Russian
Default : No
Forced : No
Audio #4
ID : 4
Format : DTS
Format/Info : Digital Theater Systems
Format profile : MA / Core
Codec ID : A_DTS
Duration : 1h 29mn
Bit rate mode : Variable
Bit rate : 2 032 Kbps / 1 510 Kbps
Channel(s) : 6 channels
Channel positions : Front: L C R, Side: L R, LFE
Sampling rate : 48.0 KHz
Bit depth : 16 bits
Compression mode : Lossless / Lossy
Title : Оригинал
Language : English
Default : No
Forced : No
Text #5
ID : 5
Format : UTF-8
Codec ID : S_TEXT/UTF8
Codec ID/Info : UTF-8 Plain Text
Title : Mokum
Language : Russian
Default : No
Forced : No
Text #6
ID : 6
Format : UTF-8
Codec ID : S_TEXT/UTF8
Codec ID/Info : UTF-8 Plain Text
Title : DVD
Language : Ukrainian
Default : No
Forced : No
Text #7
ID : 7
Format : UTF-8
Codec ID : S_TEXT/UTF8
Codec ID/Info : UTF-8 Plain Text
Title : Full
Language : English
Default : No
Forced : No
Menu
00:00:00.000 : en:00:00:00.000
00:07:18.771 : en:00:07:18.771
00:16:19.061 : en:00:16:19.061
00:26:56.656 : en:00:26:56.656
00:36:20.553 : en:00:36:20.553
00:45:11.667 : en:00:45:11.667
00:52:01.910 : en:00:52:01.910
00:58:32.759 : en:00:58:32.759
01:05:33.512 : en:01:05:33.512
01:12:28.844 : en:01:12:28.844
01:25:04.057 : en:01:25:04.057

Полноразмерные постеры

Скачать

Скачать торрент!

Как скачивать? · Что такое торрент? · Рейтинг и ограничения

Сайт не распространяет и не хранит электронные версии произведений, а лишь предоставляет доступ к создаваемому пользователями каталогу ссылок на торрент-файлы, которые содержат только списки хеш-сумм

[Профиль] [ЛС]
Показать сообщения:    
Ответить на тему

Текущее время: Сегодня 14:13

Часовой пояс: GMT + 4



Вы не можете начинать темы
Вы не можете отвечать на сообщения
Вы не можете редактировать свои сообщения
Вы не можете удалять свои сообщения
Вы не можете голосовать в опросах
Вы не можете прикреплять файлы к сообщениям
Вы не можете скачивать файлы