Честь и слава / Ангел кикбоксера / Honor and Glory / Angel Of Kickboxer / Power Heat / Jung wang tin ha / Zong heng tian xia (Годфри Хо / Godfrey Ho) [1992 г., боевик, криминал, DVDRip] MVO (5 канал, Петербург) + AVO (Гаврилов) + AVO (Кашкин)

Ответить на тему
 
Автор Сообщение

user ®

Стаж: 11 лет

Сообщений: 15151

Пост Пост: #1 от 21-Июл-2013 01:30

[Цитировать]

Честь и слава / Ангел кикбоксераHonor and Glory / Honour and Glory / Angel Of Kickboxer / Power Heat / Jung wang tin ha / Zong heng tian xia
Год выпуска: 1992
Страна: Гонконг, США
Производство: Action Star Pictures, Filmswell International Ltd., Rocket Pictures
Жанр: боевик, криминал
Продолжительность: 01:26:38
Перевод 1: Профессиональный (многоголосый, закадровый) 5 канал, Петербург
Перевод 2: Авторский (одноголосый, закадровый) Гаврилов
Перевод 3: Авторский (одноголосый, закадровый) Кашкин
Режиссер: Годфри Хо / Godfrey Ho
В ролях: Синтия Ротрок, Робин Шоу, Чак Джеффрис, Юкари Ошима, Мун Ли, Донна Джейсон, Джон Миллер, Джералд Клейн, Ричард Юэнь, Йип Йим Хин, Лео Рокка, Грег Элги, Джимми Алуизи, Майкл Бэрри, Джейсон Биверс, Курт Бекер, Стив Белчер, Рэй Баннер, Стивен Канн, Том Карлин, Шерри Картер, Дженаро Сентено, Дэйв Чамберлен, Полин Чан, Тао Чианг, Даг Коэн, Эверетт Коттом, Малик Дозье, Майкл Н. Данлоп, Ричард Эванс, Лесли Фостер, Мелисса Гарднер...
Описание: Свершилось ужасное, Советский Союз прекратил своё существование. Огромные запасы вооружения остались без присмотра. В этой неразберихе болгарский генерал выкрал детонатор от ядерной боеголовки и подался на запад. По его следам отправляют спецагента ФБР Трейси Прайд (Синтия Ротрок). Меж тем, в Штатах, её младшая сестра тележурналистика Джойс Прайд (Донна Джейсон) задалась целью вывести на чисту воду мультимиллионера Джейсона Слейда (Джон Миллер), который заказал похищение ядерной установки. Сестрам придется объединить усилия и спасти планету от третьей мировой войны.
Доп.информация: Это американская версия картины, для Гонконга, Годфри Хо снимет совершенно другой фильм, вышедший в свет под названием Angel the Kickboxer. Этот же фильм, целиком продюсировал под западный рынок, и снят, по всем канонам западного кинематографа.
Автор релиза:
Качество видео: DVDRip [DVD9]
Формат файла: AVI
Видео: 720x544, 25.000 fps, MPEG-4 Visual, 2013 kbps
Аудио 1: 48 kHz, MP3, 2 ch, 128 kbps [5 канал, Петербург]
Аудио 2: 48 kHz, MP3, 2 ch, 128 kbps [Гаврилов]
Аудио 3: 48 kHz, MP3, 2 ch, 128 kbps [Кашкин]

MediaInfo

General
Format : AVI
Format/Info : Audio Video Interleave
File size : 1.46 GiB
Duration : 1h 26mn
Overall bit rate : 2 413 Kbps
Writing application : VirtualDubMod 1.5.10.3 (build 2550/release)
Writing library : VirtualDubMod build 2550/release
Video
ID : 0
Format : MPEG-4 Visual
Format profile : Advanced Simple@L5
Format settings, BVOP : 2
Format settings, QPel : No
Format settings, GMC : No warppoints
Format settings, Matrix : Default (MPEG)
Codec ID : XVID
Codec ID/Hint : XviD
Duration : 1h 26mn
Bit rate : 2 013 Kbps
Width : 720 pixels
Height : 544 pixels
Display aspect ratio : 4:3
Frame rate : 25.000 fps
Color space : YUV
Chroma subsampling : 4:2:0
Bit depth : 8 bits
Scan type : Progressive
Compression mode : Lossy
Bits/(Pixel*Frame) : 0.206
Stream size : 1.22 GiB (83%)
Writing library : XviD 1.2.1 (UTC 2008-12-04)
Audio #1
ID : 1
Format : MPEG Audio
Format version : Version 1
Format profile : Layer 3
Mode : Joint stereo
Codec ID : 55
Codec ID/Hint : MP3
Duration : 1h 26mn
Bit rate mode : Constant
Bit rate : 128 Kbps
Channel(s) : 2 channels
Sampling rate : 48.0 KHz
Compression mode : Lossy
Stream size : 79.3 MiB (5%)
Alignment : Aligned on interleaves
Interleave, duration : 40 ms (1.00 video frame)
Interleave, preload duration : 504 ms
Audio #2
ID : 2
Format : MPEG Audio
Format version : Version 1
Format profile : Layer 3
Mode : Joint stereo
Codec ID : 55
Codec ID/Hint : MP3
Duration : 1h 26mn
Bit rate mode : Constant
Bit rate : 128 Kbps
Channel(s) : 2 channels
Sampling rate : 48.0 KHz
Compression mode : Lossy
Stream size : 79.3 MiB (5%)
Alignment : Aligned on interleaves
Interleave, duration : 40 ms (1.00 video frame)
Interleave, preload duration : 504 ms
Audio #3
ID : 3
Format : MPEG Audio
Format version : Version 1
Format profile : Layer 3
Mode : Joint stereo
Codec ID : 55
Codec ID/Hint : MP3
Duration : 1h 24mn
Bit rate mode : Constant
Bit rate : 128 Kbps
Channel(s) : 2 channels
Sampling rate : 48.0 KHz
Compression mode : Lossy
Stream size : 77.5 MiB (5%)
Alignment : Aligned on interleaves
Interleave, duration : 41 ms (1.02 video frame)
Interleave, preload duration : 504 ms

Обложки DVD

Скриншот c названием фильма

Скриншоты

Скачать

Скачать торрент! Честь и слава / Ангел кикбоксера / Honor and Glory / Angel Of Kickboxer / Power Heat / Jung wang tin ha / Zong heng tian xia (Годфри Хо / Godfrey Ho) [1992 г., боевик, криминал, DVDRip] MVO (5 канал, Петербург) + AVO (Гаврилов) + AVO (Кашкин)

Как скачивать? · Что такое торрент? · Рейтинг и ограничения

Сайт не распространяет и не хранит электронные версии произведений, а лишь предоставляет доступ к создаваемому пользователями каталогу ссылок на торрент-файлы, которые содержат только списки хеш-сумм

[Профиль] [ЛС]
Показать сообщения:    
Ответить на тему

Текущее время: Сегодня 19:20

Часовой пояс: GMT + 4



Вы не можете начинать темы
Вы не можете отвечать на сообщения
Вы не можете редактировать свои сообщения
Вы не можете удалять свои сообщения
Вы не можете голосовать в опросах
Вы не можете прикреплять файлы к сообщениям
Вы не можете скачивать файлы