Как выбрать королевскую невесту / How To Choose A Royal Bride (Тони Лю / Tony Liu) [1985, Гонконг, комедия, боевые искусства, DVDRip] VO (Jet)

Ответить на тему
 
Автор Сообщение

user ®

Стаж: 11 лет

Сообщений: 15151

Пост Пост: #1 от 20-Июл-2013 03:20

[Цитировать]

Как выбрать королевскую невесту / How To Choose A Royal Bride
Страна: Гонконг
Жанр: комедия, боевые искусства
Год выпуска: 1985
Продолжительность: 01:31:52-Перевод: Виктор Береговых (Jet)
Рип: Public Enemy (((
Cубтитры: нет
Оригинальная аудиодорожка: нет-Режиссер: Тони Лю / Tony Liu-В ролях: Леунг Ка Ян, Джой Вон, Ло Лье, Билл Тун, Чень Куань Тай, Вон Юй, Дерек Йи, Чен Сиу Пин, Ай Ти, Ку Фэн, Танни Тьен, Кун До-Описание: Когда император Кан Си вступил на трон, вдовствующая императрица решила найти ему невесту.Во дворце собрались самые красивые девушки со всей страны,но ни одна из них не пленила сердце молодого императора.Чтобы развеять скуку,Кан Си решил отправиться в Цзян Нань под видом богатого мастера с двумя верными слугами.Много приключений произошло на их пути.Кан Си спас невинного человека от казни,разубедил самоубийцу,поймал грабителей,раскрыл заговор против самого себя и конечно же встретил настоящую любовь... (В.Береговых)-Релиз групп - -Качество видео: DVDRip (DVD5)
Формат видео: AVI
Видео: XviD, 720x304 (2.37:1), 23.976 fps, 2072 kbps avg, 0.40 bit/pixel
Аудио: Русский MPEG layer 3, 2 ch, 192 kbps
-

MediaInfo

Format : AVI
Format/Info : Audio Video Interleave
File size : 1.46 GiB
Duration : 1h 31mn
Overall bit rate : 2 274 Kbps
Writing application : VirtualDubMod 1.5.10.3 | www.virtualdub-fr.org || (build 2550/release)
Writing library : VirtualDubMod build 2550/release
Video
ID : 0
Format : MPEG-4 Visual
Format profile : Advanced Simple@L5
Format settings, BVOP : 1
Format settings, QPel : No
Format settings, GMC : No warppoints
Format settings, Matrix : Custom
Codec ID : XVID
Codec ID/Hint : XviD
Duration : 1h 31mn
Bit rate : 2 073 Kbps
Width : 720 pixels
Height : 304 pixels
Display aspect ratio : 2.35:1
Frame rate : 23.976 fps
Color space : YUV
Chroma subsampling : 4:2:0
Bit depth : 8 bits
Scan type : Progressive
Compression mode : Lossy
Bits/(Pixel*Frame) : 0.395
Stream size : 1.33 GiB (91%)
Writing library : XviD 73
Audio
ID : 1
Format : MPEG Audio
Format version : Version 1
Format profile : Layer 3
Codec ID : 55
Codec ID/Hint : MP3
Duration : 1h 31mn
Bit rate mode : Constant
Bit rate : 192 Kbps
Channel(s) : 2 channels
Sampling rate : 48.0 KHz
Compression mode : Lossy
Stream size : 126 MiB (8%)
Alignment : Aligned on interleaves
Interleave, duration : 42 ms (1.00 video frame)
Interleave, preload duration : 504 ms

Скриншот с названием

Скриншоты

Скачать

Скачать торрент! Как выбрать королевскую невесту / How To Choose A Royal Bride (Тони Лю / Tony Liu) [1985, Гонконг, комедия, боевые искусства, DVDRip] VO (Jet)

Как скачивать? · Что такое торрент? · Рейтинг и ограничения

Сайт не распространяет и не хранит электронные версии произведений, а лишь предоставляет доступ к создаваемому пользователями каталогу ссылок на торрент-файлы, которые содержат только списки хеш-сумм

[Профиль] [ЛС]
Показать сообщения:    
Ответить на тему

Текущее время: Сегодня 14:40

Часовой пояс: GMT + 4



Вы не можете начинать темы
Вы не можете отвечать на сообщения
Вы не можете редактировать свои сообщения
Вы не можете удалять свои сообщения
Вы не можете голосовать в опросах
Вы не можете прикреплять файлы к сообщениям
Вы не можете скачивать файлы