13 хладнокровных орлов / Новый мстительный орел / The 13 Cold Blooded Eagles / Thirteen Cold-Blooded Eagles / New Avenging Eagle / Xin leng xue shi san ying (Чуй Фат / Chui Fat) [1993 г., Гонконг, боевик, драма, боевые искусства, DVDRip] VO (Прокс)

Ответить на тему
 
Автор Сообщение

user ®

Стаж: 11 лет

Сообщений: 15151

Пост Пост: #1 от 20-Июл-2013 03:20

[Цитировать]

13 хладнокровных орлов / Новый мстительный орелThe 13 Cold Blooded Eagles / Thirteen Cold-Blooded Eagles / New Avenging Eagle / Xin leng xue shi san ying
Год выпуска: 1993
Страна: Гонконг, Китай
Производство: Cheung Yau Production Co., Guangxi Film Studio
Жанр: боевик, драма, боевые искусства
Продолжительность: 01:30:05
Перевод: одноголосый, закадровый Прокс
Режиссер: Чуй Фат / Chui Fat
В ролях: Синтия Кхан, Уэйз Ли, Чук-Нин Чо, Фэт Чунг, Чи Вэй Ло, Чинг Тиен, Тинг-Као Ву, Ши-Кван Йен, Хсианг Лин Йин...
Описание: Группа мастеров кунг-фу и фехтования несет людям «добро», уничтожая зло. Бандиты не могут избежать наказания. Руководит группой и направляет их действия их приемный отец Ю Шихунг, который выростил их, и обучил мастерству убийства. Но так ли чисты намерения Ю Шихунга, как кажется на первый взгляд? Главная цель Ю Шихунга — уничтожить всех лучших бойцов кунг-фу, добыть книги их стилей, и стать непобедимым...
Автор релиза:
Качество видео: DVDRip
Формат файла: AVI
Видео: 720x400, 23.976 fps, MPEG-4 Visual, 2025 kbps
Аудио: 48 kHz, MP3, 2 ch, 128 kbps [Русский]

MediaInfo

General
Format : AVI
Format/Info : Audio Video Interleave
File size : 1.36 GiB
Duration : 1h 30mn
Overall bit rate : 2 162 Kbps
Writing application : VirtualDubMod 1.5.10.3 (build 2550/release)
Writing library : VirtualDubMod build 2550/release
Video
ID : 0
Format : MPEG-4 Visual
Format profile : Advanced Simple@L5
Format settings, BVOP : 2
Format settings, QPel : No
Format settings, GMC : No warppoints
Format settings, Matrix : Default (MPEG)
Codec ID : XVID
Codec ID/Hint : XviD
Duration : 1h 30mn
Bit rate : 2 025 Kbps
Width : 720 pixels
Height : 400 pixels
Display aspect ratio : 16:9
Frame rate : 23.976 fps
Color space : YUV
Chroma subsampling : 4:2:0
Bit depth : 8 bits
Scan type : Progressive
Compression mode : Lossy
Bits/(Pixel*Frame) : 0.293
Stream size : 1.27 GiB (94%)
Writing library : XviD 1.2.1 (UTC 2008-12-04)
Audio
ID : 1
Format : MPEG Audio
Format version : Version 1
Format profile : Layer 3
Codec ID : 55
Codec ID/Hint : MP3
Duration : 1h 29mn
Bit rate mode : Constant
Bit rate : 128 Kbps
Channel(s) : 2 channels
Sampling rate : 48.0 KHz
Compression mode : Lossy
Stream size : 82.4 MiB (6%)
Alignment : Aligned on interleaves
Interleave, duration : 42 ms (1.00 video frame)
Interleave, preload duration : 504 ms

Обложки DVD

Скриншот c названием фильма

Скриншоты

Скачать

Скачать торрент! 13 хладнокровных орлов / Новый мстительный орел / The 13 Cold Blooded Eagles / Thirteen Cold-Blooded Eagles / New Avenging Eagle / Xin leng xue shi san ying (Чуй Фат / Chui Fat) [1993 г., Гонконг, боевик, драма, боевые искусства, DVDRip] VO (Прокс)

Как скачивать? · Что такое торрент? · Рейтинг и ограничения

Сайт не распространяет и не хранит электронные версии произведений, а лишь предоставляет доступ к создаваемому пользователями каталогу ссылок на торрент-файлы, которые содержат только списки хеш-сумм

[Профиль] [ЛС]
Показать сообщения:    
Ответить на тему

Текущее время: Сегодня 07:38

Часовой пояс: GMT + 4



Вы не можете начинать темы
Вы не можете отвечать на сообщения
Вы не можете редактировать свои сообщения
Вы не можете удалять свои сообщения
Вы не можете голосовать в опросах
Вы не можете прикреплять файлы к сообщениям
Вы не можете скачивать файлы