Разгневанный дракон / Восхитительный дракон / Пьяный дракон / Exciting Dragon / Drunken Dragon / Long fa wei (Чыу Чун Хин / Chiu Chung-Hing) [1985, Гонконг, комедия, боевые искусства, DVDRip] VO (Jet)

Ответить на тему
 
Автор Сообщение

user ®

Стаж: 11 лет

Сообщений: 15151

Пост Пост: #1 от 20-Июл-2013 03:20

[Цитировать]

Разгневанный дракон / Восхитительный дракон / Пьяный дракон / Exciting Dragon / Drunken Dragon / Long fa wei
Страна: Гонконг
Жанр: комедия, боевые искусства
Год выпуска: 1985
Продолжительность: 01:33:43-Перевод: Виктор Береговых (Jet)
Переводчик: Владимир Петрушин
Рип: Public Enemy (((
Постер: Public Enemy (((
Cубтитры: нет
Оригинальная аудиодорожка: нет-Режиссер: Чыу Чун Хин / Chiu Chung-Hing-В ролях: Люн Ка Янь, Суэнь Квок Мин, Филип Ко, Чоу Мэй И, Чыан Шэн, Ён Хун, Чинь Лун-Описание: Гау живет у своей бабушки, под началом которой изучает кун-фу. У него есть невеста, которую он не видел много лет, но идиллию прерывает злобный мастер кун-фу, который заявляется в его дом с двумя помощниками, чтобы изъять у его бабушки Доспехи Семи Звезд, которые необходимы, чтобы добраться до бесценного сокровища.-Релиз групп - -Качество видео: DVDRip (DVD5)
Формат видео: AVI
Видео: XviD, 720x400 (1.80:1), 23.976 fps, 2027 kbps avg, 0.29 bit/pixel
Аудио: Русский MPEG layer 3, 2 ch, 192 kbps
-

MediaInfo

Format : AVI
Format/Info : Audio Video Interleave
File size : 1.46 GiB
Duration : 1h 33mn
Overall bit rate : 2 229 Kbps
Writing application : VirtualDubMod 1.5.10.3 | www.virtualdub-fr.org || (build 2550/release)
Writing library : VirtualDubMod build 2550/release
Video
ID : 0
Format : MPEG-4 Visual
Format profile : Advanced Simple@L5
Format settings, BVOP : 1
Format settings, QPel : No
Format settings, GMC : No warppoints
Format settings, Matrix : Custom
Codec ID : XVID
Codec ID/Hint : XviD
Duration : 1h 33mn
Bit rate : 2 028 Kbps
Width : 720 pixels
Height : 400 pixels
Display aspect ratio : 16:9
Frame rate : 23.976 fps
Color space : YUV
Chroma subsampling : 4:2:0
Bit depth : 8 bits
Scan type : Progressive
Compression mode : Lossy
Bits/(Pixel*Frame) : 0.294
Stream size : 1.33 GiB (91%)
Writing library : XviD 73
Audio
ID : 1
Format : MPEG Audio
Format version : Version 1
Format profile : Layer 3
Codec ID : 55
Codec ID/Hint : MP3
Duration : 1h 33mn
Bit rate mode : Constant
Bit rate : 192 Kbps
Channel(s) : 2 channels
Sampling rate : 48.0 KHz
Compression mode : Lossy
Stream size : 129 MiB (9%)
Alignment : Aligned on interleaves
Interleave, duration : 42 ms (1.00 video frame)
Interleave, preload duration : 504 ms

Скриншот с названием

Скриншоты

Скачать

Скачать торрент! Разгневанный дракон / Восхитительный дракон / Пьяный дракон / Exciting Dragon / Drunken Dragon / Long fa wei (Чыу Чун Хин / Chiu Chung-Hing) [1985, Гонконг, комедия, боевые искусства, DVDRip] VO (Jet)

Как скачивать? · Что такое торрент? · Рейтинг и ограничения

Сайт не распространяет и не хранит электронные версии произведений, а лишь предоставляет доступ к создаваемому пользователями каталогу ссылок на торрент-файлы, которые содержат только списки хеш-сумм

[Профиль] [ЛС]
Показать сообщения:    
Ответить на тему

Текущее время: Сегодня 21:23

Часовой пояс: GMT + 4



Вы не можете начинать темы
Вы не можете отвечать на сообщения
Вы не можете редактировать свои сообщения
Вы не можете удалять свои сообщения
Вы не можете голосовать в опросах
Вы не можете прикреплять файлы к сообщениям
Вы не можете скачивать файлы