Два дивных тигра / Two Wondrous Tigers / Chu zha hu (Чён Сам / Chyon Sam) [1980, Гонконг, боевые искусства,комедия, DVDRip] VO (Jet)

Ответить на тему
 
Автор Сообщение

user ®

Стаж: 11 лет

Сообщений: 15151

Пост Пост: #1 от 20-Июл-2013 03:20

[Цитировать]

Два дивных тигра / Two Wondrous Tigers / Chu zha hu- -Год выпуска: 1980
Страна: Гонконг
Жанр: боевые искусства,комедия
Продолжительность: 01:28:36
Перевод:

Одноголосый закадровый Jet
Субтитры: нет
Режиссер: Чён Сам / Chyon Sam-В ролях: Филлип Ко, Джон Чун, Шерон Юн, Чарли Чан, Уилсон Тонг, Питер Чан Лунг и др.-Описание: Молодой парень по имени Роберт Ко приезжает из Америки в Китай в поисках жены китаянки. По прибытии он знакомится с молодым парнем по прозвищу Тигр, который тоже не прочь жениться. В это же время молодой мастер Ма делает предложение лучшей невесте города А Мэй Ян и получает согласие, при условии, что он победит в поединке саму А Мэй, ее сестру и ее брата. Потерпев поражение, Ма решает пойти другим путем. Он объявляет награду тому, кто победит семью Ян, рассчитывая на то, что победитель получит деньги и отдаст ему А Мэй. Среди многочисленных желающих попытать свое счастье оказываются Роберт Ко и Тигр, которые вовсе не намерены отдавать кому либо А Мэй и к тому же они оба в нее влюбляются…-Качество: DVDRip
Формат: AVI
Видео кодек: XviD
Видео: 672x512 (1.31:1), 25 fps, XviD build 73 ~1033 kbps avg, 0.15 bit/pixel
Аудио: 48 kHz, MPEG Layer 3, 2 ch, ~128.00 kbps avg
-

МИ

General
Complete name : D:\TORRENTS for WORK\RIPS in WORK\Dva_Tigra_1980_DVDRip_Menen.avi
Format : AVI
Format/Info : Audio Video Interleave
File size : 742 MiB
Duration : 1h 28mn
Overall bit rate : 1 171 Kbps
Movie name : Dva_Tigra_1980_DVDRip_Menen
Director : Menen
Writing application : VirtualDubMod 1.5.10.2 (build 2540/release)
Video
ID : 0
Format : MPEG-4 Visual
Format profile : Advanced Simple@L5
Format settings, BVOP : 1
Format settings, QPel : No
Format settings, GMC : No warppoints
Format settings, Matrix : Custom
Codec ID : XVID
Codec ID/Hint : XviD
Duration : 1h 28mn
Bit rate : 1 033 Kbps
Width : 672 pixels
Height : 512 pixels
Display aspect ratio : 4:3
Frame rate : 25.000 fps
Color space : YUV
Chroma subsampling : 4:2:0
Bit depth : 8 bits
Scan type : Progressive
Compression mode : Lossy
Bits/(Pixel*Frame) : 0.120
Stream size : 655 MiB (88%)
Writing library : XviD 73
Audio
ID : 1
Format : MPEG Audio
Format version : Version 1
Format profile : Layer 3
Codec ID : 55
Codec ID/Hint : MP3
Duration : 1h 28mn
Bit rate mode : Constant
Bit rate : 128 Kbps
Channel(s) : 2 channels
Sampling rate : 48.0 KHz
Compression mode : Lossy
Stream size : 81.1 MiB (11%)
Alignment : Aligned on interleaves
Interleave, duration : 40 ms (1.00 video frame)
Interleave, preload duration : 504 ms
Writing library : LAME3.99r
Encoding settings : -m s -V 4 -q 2 -lowpass 17 -b 128
,

Скриншоты



-
- -Раздача от группы
-
Скачать

Скачать торрент! Два дивных тигра / Two Wondrous Tigers / Chu zha hu (Чён Сам / Chyon Sam) [1980, Гонконг, боевые искусства,комедия, DVDRip] VO (Jet)

Как скачивать? · Что такое торрент? · Рейтинг и ограничения

Сайт не распространяет и не хранит электронные версии произведений, а лишь предоставляет доступ к создаваемому пользователями каталогу ссылок на торрент-файлы, которые содержат только списки хеш-сумм

[Профиль] [ЛС]
Показать сообщения:    
Ответить на тему

Текущее время: Сегодня 23:43

Часовой пояс: GMT + 4



Вы не можете начинать темы
Вы не можете отвечать на сообщения
Вы не можете редактировать свои сообщения
Вы не можете удалять свои сообщения
Вы не можете голосовать в опросах
Вы не можете прикреплять файлы к сообщениям
Вы не можете скачивать файлы