Настоящий Я / The Real Me (Чоу Ва Ю / Chow Wah-Yu) [1991, Гонконг, боевик, DVDRip] VO (Jet)

Ответить на тему
 
Автор Сообщение

user ®

Стаж: 11 лет

Сообщений: 15151

Пост Пост: #1 от 20-Июл-2013 03:20

[Цитировать]

Настоящий Я / The Real Me
Страна: Гонконг
Жанр: боевик
Год выпуска: 1991
Продолжительность: 01:09:28-Перевод: Виктор Береговых (Jet)
Переводчик: Владимир Петрушин
Рип: Public Enemy (((
Тайминг: Public Enemy (((
Cубтитры: китайские, английские (вшитые)
Оригинальная аудиодорожка: нет-Режиссер: Чоу Ва Ю / Chow Wah-Yu-В ролях: Чин Сиу Хо, Кара Хуэй, Митико Нисиваки, Кун Ва, Кен Лок, Деннис Тан, Карен Вон-Описание: Фоу Чу - полицейский,работающий под прикрытием.Его задание найти улики против главы триады Ло Чунь Хва.Чу внедряется в банду и завоевывает доверие босса.Он крадет дискету с секретной информацией и пытается бежать,но попадает в автокатастрофу, после чего теряет память.И полицейские и бандиты требуют от Чу дискету,но Чу ничего не помнит и не знает на чьей стороне ему быть...(В.Береговых)-ЭТО ТАЙСКАЯ УКОРОЧЕННАЯ ВЕРСИЯ-Релиз групп - -Качество видео: DVDRip (DVD5)
Формат видео: AVI
Видео: XviD, 720x432 (1.67:1), 23.976 fps, 2389 kbps avg, 0.32 bit/pixel
Аудио : Русский MPEG layer 3, 224 kbps
-

MediaInfo

Format : AVI
Format/Info : Audio Video Interleave
File size : 1.27 GiB
Duration : 1h 9mn
Overall bit rate : 2 623 Kbps
Writing application : VirtualDubMod 1.5.10.3 | www.virtualdub-fr.org || (build 2550/release)
Writing library : VirtualDubMod build 2550/release
Video
ID : 0
Format : MPEG-4 Visual
Format profile : Advanced Simple@L5
Format settings, BVOP : 1
Format settings, QPel : No
Format settings, GMC : No warppoints
Format settings, Matrix : Custom
Codec ID : XVID
Codec ID/Hint : XviD
Duration : 1h 9mn
Bit rate : 2 390 Kbps
Width : 720 pixels
Height : 432 pixels
Display aspect ratio : 1.667
Frame rate : 23.976 fps
Color space : YUV
Chroma subsampling : 4:2:0
Bit depth : 8 bits
Scan type : Progressive
Compression mode : Lossy
Bits/(Pixel*Frame) : 0.320
Stream size : 1.16 GiB (91%)
Writing library : XviD 73
Audio
ID : 1
Format : MPEG Audio
Format version : Version 1
Format profile : Layer 3
Codec ID : 55
Codec ID/Hint : MP3
Duration : 1h 9mn
Bit rate mode : Constant
Bit rate : 224 Kbps
Channel(s) : 2 channels
Sampling rate : 48.0 KHz
Compression mode : Lossy
Stream size : 111 MiB (9%)
Alignment : Aligned on interleaves
Interleave, duration : 42 ms (1.00 video frame)
Interleave, preload duration : 504 ms

Скриншот с названием

Скриншоты

Скачать

Скачать торрент! Настоящий Я / The Real Me (Чоу Ва Ю / Chow Wah-Yu) [1991, Гонконг, боевик, DVDRip] VO (Jet)

Как скачивать? · Что такое торрент? · Рейтинг и ограничения

Сайт не распространяет и не хранит электронные версии произведений, а лишь предоставляет доступ к создаваемому пользователями каталогу ссылок на торрент-файлы, которые содержат только списки хеш-сумм

[Профиль] [ЛС]

Tuborg

Стаж: 6 лет 9 месяцев

Сообщений: 4

Пост Пост: #2 от 02-Июн-2014 21:34 (спустя 10 месяцев 13 дней)

[Цитировать]

Раздающий, будь добр, встань на раздачу, пожалуйста :)
[Профиль] [ЛС]

Tuborg

Стаж: 6 лет 9 месяцев

Сообщений: 4

Пост Пост: #3 от 05-Июн-2014 22:06 (спустя 3 дня)

[Цитировать]

Встаньте на раздачу,Плиз!!!
[Профиль] [ЛС]

Tuborg

Стаж: 6 лет 9 месяцев

Сообщений: 4

Пост Пост: #4 от 12-Июн-2014 07:47 (спустя 6 дней)

[Цитировать]

Раздающий, ты зачем этот торрент выложил? Что бы с раздачи тут же свалить?
[Профиль] [ЛС]
Показать сообщения:    
Ответить на тему

Текущее время: Сегодня 19:16

Часовой пояс: GMT + 4



Вы не можете начинать темы
Вы не можете отвечать на сообщения
Вы не можете редактировать свои сообщения
Вы не можете удалять свои сообщения
Вы не можете голосовать в опросах
Вы не можете прикреплять файлы к сообщениям
Вы не можете скачивать файлы