Семья дракона и тигра / Пламенная семья / A fiery family (Тун Вай Шин / Wilson Tong Wai-Shing) [1989, Гонконг, боевик, криминал, DVDRip] VO (Jet)

Ответить на тему
 
Автор Сообщение

user ®

Стаж: 8 лет 7 месяцев

Сообщений: 20007

Пост Пост: #1 от 20-Июл-2013 03:20

[Цитировать]

Семья дракона и тигра / Пламенная семья / A fiery family
Страна: Гонконг
Жанр: боевик, криминал
Год выпуска: 1989
Продолжительность: 01:32:22-Перевод: Виктор Береговых (Jet)
Переводчик: Владимир Петрушин
Рип: Public Enemy (((
Оригинальная аудиодорожка: нет-Режиссер: Тун Вай Шин / Wilson Tong Wai-Shing-В ролях: Норман Чу, Ло Лье, Гордон Лю, Тай Бо, Нг Ман Тат, Уилсон Тун, Чань Чуэнь-Описание: А Ко работает на своего босса Чуна многие годы и решает покинуть банду оставив профессию киллера, чтобы помогать своей сестре на фабрике. Однако босс не может так просто отпустить его, и решается на крайние меры, а именно избавиться от него раз и навсегда, но сделать этого не удаётся... Жизнь А Ко превращается в сущий ад, сначала он лишается свободы, а затем бандиты тревожат его сестру и требуют выплаты долга...-Релиз групп - -Качество видео: DVDRip (DVD5)
Формат видео: AVI
Видео: XviD, 720x400 (1.80:1), 23.976 fps, 2058 kbps avg, 0.30 bit/pixel
Аудио : Русский MPEG layer 3, 192 kbps
-

MediaInfo

Format : AVI
Format/Info : Audio Video Interleave
File size : 1.46 GiB
Duration : 1h 32mn
Overall bit rate : 2 260 Kbps
Writing application : VirtualDubMod 1.5.10.2 (build 2540/release)
Writing library : VirtualDubMod build 2540/release
Video
ID : 0
Format : MPEG-4 Visual
Format profile : Advanced Simple@L5
Format settings, BVOP : 1
Format settings, QPel : No
Format settings, GMC : No warppoints
Format settings, Matrix : Custom
Codec ID : XVID
Codec ID/Hint : XviD
Duration : 1h 32mn
Bit rate : 2 059 Kbps
Width : 720 pixels
Height : 400 pixels
Display aspect ratio : 16:9
Frame rate : 23.976 fps
Color space : YUV
Chroma subsampling : 4:2:0
Bit depth : 8 bits
Scan type : Progressive
Compression mode : Lossy
Bits/(Pixel*Frame) : 0.298
Stream size : 1.33 GiB (91%)
Writing library : XviD 73
Audio
ID : 1
Format : MPEG Audio
Format version : Version 1
Format profile : Layer 3
Mode : Joint stereo
Mode extension : MS Stereo
Codec ID : 55
Codec ID/Hint : MP3
Duration : 1h 32mn
Bit rate mode : Constant
Bit rate : 192 Kbps
Channel(s) : 2 channels
Sampling rate : 48.0 KHz
Compression mode : Lossy
Stream size : 127 MiB (8%)
Alignment : Split accross interleaves
Interleave, duration : 42 ms (1.00 video frame)
Interleave, preload duration : 500 ms

Скриншот с названием

Скриншоты

Скачать

Скачать торрент!

Как скачивать? · Что такое торрент? · Рейтинг и ограничения

Сайт не распространяет и не хранит электронные версии произведений, а лишь предоставляет доступ к создаваемому пользователями каталогу ссылок на торрент-файлы, которые содержат только списки хеш-сумм

[Профиль] [ЛС]
Показать сообщения:    
Ответить на тему

Текущее время: Сегодня 18:59

Часовой пояс: GMT + 4



Вы не можете начинать темы
Вы не можете отвечать на сообщения
Вы не можете редактировать свои сообщения
Вы не можете удалять свои сообщения
Вы не можете голосовать в опросах
Вы не можете прикреплять файлы к сообщениям
Вы не можете скачивать файлы