Этот человек опасен / This Man is Dangerous / San dung whang yan (Джонни Ванг / Johnny Vang) [1985, Гонконг, Боевик, VHSRip] VO (Jet)

Ответить на тему
 
Автор Сообщение

user ®

Стаж: 8 лет 7 месяцев

Сообщений: 20007

Пост Пост: #1 от 20-Июл-2013 03:20

[Цитировать]

Этот человек опасен / This Man is Dangerous- -Год выпуска: 1985
Страна: Гонконг
Жанр: боевик
Продолжительность: 01:31:57
Перевод:

Одноголосый закадровый Jet
Субтитры: английские (Вшитые )
Режиссер: Джонни Ванг / Johnny Vang-В ролях: Леунг Ка Ян, Джонни Ванг, Чин Сиу Хо, Филлип Ко, Чен Чин Пан, Ло Мэн и др.-Описание: Молодые парни Хао и Вэй переводятся из патрульной службы в отдел расследований преступлений.Однажды парни и их коллеги по работе оказываются в ночном клубе,где ссорятся с Луном, лидером банды из Шань Дуна.Выждав,пока полицейские напьются,бандиты нападают на них и забирают табельное оружие,а после расстреливают банду вьетнамцев из пистолетов полицейских.
В скором времени полиция выходит на след банды и Хао убивает Бяо,родного брата Луна.Луну и остальным удается скрыться и теперь у отмороженного лидера банды свои счеты с полицией и он полон решимости отомстить......(В.Береговых)
-Качество: VHSRip
Формат: AVI
Видео кодек: XviD
Видео: 656x352 (1.86:1), 23.976 fps, XviD build 73 ~989 kbps avg, 0.18 bit/pixel
Аудио: 48 kHz, MPEG Layer 3, 2 ch, ~128.00 kbps avg
-

МИ

General
Complete name : D:\TORRENTS for WORK\RIPS in WORK\Etot_Chelovek_Opasen_1985_VHSRip_Menen.avi
Format : AVI
Format/Info : Audio Video Interleave
File size : 741 MiB
Duration : 1h 31mn
Overall bit rate : 1 127 Kbps
Movie name : Etot_Chelovek_Opasen_1985_VHSRip_Menen
Director : Menen
Writing application : VirtualDubMod 1.5.10.2 (build 2540/release)
Video
ID : 0
Format : MPEG-4 Visual
Format profile : Advanced Simple@L5
Format settings, BVOP : 1
Format settings, QPel : No
Format settings, GMC : No warppoints
Format settings, Matrix : Custom
Codec ID : XVID
Codec ID/Hint : XviD
Duration : 1h 31mn
Bit rate : 990 Kbps
Width : 656 pixels
Height : 352 pixels
Display aspect ratio : 1.85:1
Frame rate : 23.976 fps
Color space : YUV
Chroma subsampling : 4:2:0
Bit depth : 8 bits
Scan type : Progressive
Compression mode : Lossy
Bits/(Pixel*Frame) : 0.179
Stream size : 651 MiB (88%)
Writing library : XviD 73
Audio
ID : 1
Format : MPEG Audio
Format version : Version 1
Format profile : Layer 3
Codec ID : 55
Codec ID/Hint : MP3
Duration : 1h 31mn
Bit rate mode : Constant
Bit rate : 128 Kbps
Channel(s) : 2 channels
Sampling rate : 48.0 KHz
Compression mode : Lossy
Stream size : 84.2 MiB (11%)
Alignment : Aligned on interleaves
Interleave, duration : 42 ms (1.00 video frame)
Interleave, preload duration : 504 ms
Writing library : LAME3.99r
Encoding settings : -m s -V 4 -q 2 -lowpass 17 -b 128

Скриншоты



-
- -Раздача от группы
-
Скачать

Скачать торрент!

Как скачивать? · Что такое торрент? · Рейтинг и ограничения

Сайт не распространяет и не хранит электронные версии произведений, а лишь предоставляет доступ к создаваемому пользователями каталогу ссылок на торрент-файлы, которые содержат только списки хеш-сумм

[Профиль] [ЛС]
Показать сообщения:    
Ответить на тему

Текущее время: Сегодня 18:59

Часовой пояс: GMT + 4



Вы не можете начинать темы
Вы не можете отвечать на сообщения
Вы не можете редактировать свои сообщения
Вы не можете удалять свои сообщения
Вы не можете голосовать в опросах
Вы не можете прикреплять файлы к сообщениям
Вы не можете скачивать файлы